Register  ·  Log in
Forgot password?

  • Мальчик с пальчик (Гунар Пиесис) [1985, сказка, DVDRip]

    Reply to topic
    Author Message


    Post 21-Mar-2015 20:55



    Мальчик с пальчик
    Жанр: сказка
    Год выпуска: 1985
    Продолжительность: 01:19:53
    Режиссёр: Гунар Пиесис
    В ролях: Роланд Нейланд, Даце Гасьюна, Дзинтра Клетниеце, Эльвира Балдиня, Зденек Ржегорж, Мирослава Соучкова
    Описание: По пьесе детской латышской писательницы А. Бригадере. Мальчик-с-пальчик уходит от злой мачехи искать счастья и лучшей жизни. На своем пути он встречает Мать Ветров, Мать Лесов и Старца, которые за доброту и готовность помочь, за чуткое, отзывчивое сердце дарят Мальчику волшебную дудочку, палочку и перстень, которые помогают ему победить Черта, задумавшего взять в жены принцессу Златовласку, спастись от Ведьмы и вернуться и родные края. Пройдя через множество испытаний, Спиридитис понимает, что только на родной земле, рядом с односельчанами, любимой бабушкой и верной подругой Лиените он может быть по-настоящему счастлив.
    Доп. информация: R5 издание от "ОРТ-Видео". Качество среднее.
    Качество видео: DVDRip
    Формат видео: AVI
    Видео: 608x464 (1.31:1), 25 fps, XviD build 64 ~1167 kbps avg, 0.17 bit/pixel
    Аудио: 48 kHz, MPEG Layer 3, 2 ch, ~128.00 kbps avg


    Complete name : C:\Users\samsung\Videos\Мальчик с пальчик DVDRip (1985).avi
    Format : AVI
    Format/Info : Audio Video Interleave
    File size : 746 MiB
    Duration : 1h 19mn
    Overall bit rate : 1 305 Kbps
    Writing library : VirtualDub build 35390/release
    ID : 0
    Format : MPEG-4 Visual
    Format profile : Advanced Simple@L5
    Format settings, BVOP : No
    Format settings, QPel : No
    Format settings, GMC : No warppoints
    Format settings, Matrix : Custom
    Codec ID : XVID
    Codec ID/Hint : XviD
    Duration : 1h 19mn
    Bit rate : 1 167 Kbps
    Width : 608 pixels
    Height : 464 pixels
    Display aspect ratio : 4:3
    Frame rate : 25.000 fps
    Color space : YUV
    Chroma subsampling : 4:2:0
    Bit depth : 8 bits
    Scan type : Progressive
    Bits/(Pixel*Frame) : 0.165
    Stream size : 667 MiB (89%)
    Writing library : XviD 64
    ID : 1
    Format : MPEG Audio
    Format version : Version 1
    Format profile : Layer 3
    Codec ID : 55
    Codec ID/Hint : MP3
    Duration : 1h 19mn
    Bit rate mode : Constant
    Bit rate : 128 Kbps
    Channel(s) : 2 channels
    Sampling rate : 48.0 KHz
    Stream size : 73.1 MiB (10%)
    Alignment : Split accross interleaves
    Interleave, duration : 40 ms (1.00 video frame)
    Interleave, preload duration : 500 ms
    Writing library : LAME3.98r
    Encoding settings : -m s -V 4 -q 2 -lowpass 17 -b 128


    Download .torrent

    Download free and at maximum speed!

    How to Download? · What is a torrent? · Ratings and Limitations

    The site does not extend and does not store electronic(digital) versions of products, and only gives access to a reference catalogue created by users on torrent-files which contain only lists of the hash-sums, the earnest entreaty, with complaints(abuse) to access directly to the user. Files for an exchange on tracker are given by users of a site, and the administration does not bear the responsibility for their maintenance. The request to not fill in the files protected by copyrights, and also files of the illegal maintenance!

    [Profile] [PM]
    Display posts from previous:    
    Reply to topic

    The time now is: Today 09:54

    All times are GMT + 3 Hours

    You cannot post new topics in this forum
    You cannot reply to topics in this forum
    You cannot edit your posts in this forum
    You cannot delete your posts in this forum
    You cannot vote in polls in this forum
    You cannot attach files in this forum
    You cannot download files in this forum