BitTorrentTracker PerecTracker.org
BitTorrentTracker PerecTracker.org
    
Регистрация  ·  Вход
 
 · 
Забыли пароль?

  • Мальчик с пальчик (Гунар Пиесис) [1985, сказка, DVDRip]

    Ответить на тему
     
    Автор Сообщение

    Light

    Создавать темы 21-Мар-2015 19:55

           

    [Цитировать]

    Мальчик с пальчик
    Жанр: сказка
    Год выпуска: 1985
    Продолжительность: 01:19:53
    Режиссёр: Гунар Пиесис
    В ролях: Роланд Нейланд, Даце Гасьюна, Дзинтра Клетниеце, Эльвира Балдиня, Зденек Ржегорж, Мирослава Соучкова
    Описание: По пьесе детской латышской писательницы А. Бригадере. Мальчик-с-пальчик уходит от злой мачехи искать счастья и лучшей жизни. На своем пути он встречает Мать Ветров, Мать Лесов и Старца, которые за доброту и готовность помочь, за чуткое, отзывчивое сердце дарят Мальчику волшебную дудочку, палочку и перстень, которые помогают ему победить Черта, задумавшего взять в жены принцессу Златовласку, спастись от Ведьмы и вернуться и родные края. Пройдя через множество испытаний, Спиридитис понимает, что только на родной земле, рядом с односельчанами, любимой бабушкой и верной подругой Лиените он может быть по-настоящему счастлив.
    Доп. информация: R5 издание от "ОРТ-Видео". Качество среднее.
    Семпл: http://multi-up.com/1017962
    Качество видео: DVDRip
    Формат видео: AVI
    Видео: 688x528 (1.30:1), 25 fps, XviD build 64 ~2393 kbps avg, 0.26 bit/pixel
    Аудио: 48 kHz, AC3 Dolby Digital, 2/0 (L,R) ch, ~192 kbps avg

    MediaInfo

    General
    Complete name : C:\Users\samsung\Videos\Мальчик с пальчик DVDRip 1985.avi
    Format : AVI
    Format/Info : Audio Video Interleave
    File size : 1.45 GiB
    Duration : 1h 19mn
    Overall bit rate : 2 594 Kbps
    Writing library : VirtualDub build 35390/release
    Video
    ID : 0
    Format : MPEG-4 Visual
    Format profile : Advanced Simple@L5
    Format settings, BVOP : No
    Format settings, QPel : No
    Format settings, GMC : No warppoints
    Format settings, Matrix : Custom
    Codec ID : XVID
    Codec ID/Hint : XviD
    Duration : 1h 19mn
    Bit rate : 2 393 Kbps
    Width : 688 pixels
    Height : 528 pixels
    Display aspect ratio : 4:3
    Frame rate : 25.000 fps
    Color space : YUV
    Chroma subsampling : 4:2:0
    Bit depth : 8 bits
    Scan type : Progressive
    Bits/(Pixel*Frame) : 0.263
    Stream size : 1.34 GiB (92%)
    Writing library : XviD 64
    Audio
    ID : 1
    Format : AC-3
    Format/Info : Audio Coding 3
    Mode extension : CM (complete main)
    Codec ID : 2000
    Duration : 1h 19mn
    Bit rate mode : Constant
    Bit rate : 192 Kbps
    Channel(s) : 2 channels
    Channel positions : Front: L R
    Sampling rate : 48.0 KHz
    Bit depth : 16 bits
    Stream size : 110 MiB (7%)
    Alignment : Aligned on interleaves
    Interleave, duration : 40 ms (1.00 video frame)
    Interleave, preload duration : 512 ms

    Скриншоты

    Скачать .torrent

    Скачать торрент-файл бесплатно и на максимальной скорости!

    Как скачивать? · Что такое торрент? · Рейтинг и ограничения

    !ВНИМАНИЕ!
    Сайт не распространяет и не хранит электронные версии произведений, а занимается лишь лишь предоставлением доступа к создаваемому пользователями каталогу ссылок на торрент-файлы, которые содержат только списки хеш-сумм, убедительная просьба с жалобами обращаться напрямую к пользователю. Файлы для обмена на трекере предоставлены пользователями сайта, и администрация не несёт ответственности за их содержание. Просьба не заливать файлы, защищенные авторскими правами, а также файлы нелегального содержания!


    _________________
    [Профиль] [ЛС]
    Показать сообщения:    
    Ответить на тему

    Текущее время: Сегодня, в 20:46

    Часовой пояс: GMT + 2



    Вы не можете начинать темы
    Вы не можете отвечать на сообщения
    Вы не можете редактировать свои сообщения
    Вы не можете удалять свои сообщения
    Вы не можете голосовать в опросах
    Вы не можете прикреплять файлы к сообщениям
    Вы не можете скачивать файлы