Register  ·  Log in
Forgot password?

  • Макар - следопыт (Николай Ковальский) [1984, детский, приключения, военный, DVDRip]

    Reply to topic
    Author Message


    Post 21-Mar-2015 20:55



    Макар - следопыт (3 серии)
    Жанр: Детский, Приключения, Военный
    Год выпуска: 1984
    Продолжительность: 03:07:54
    Режиссёр: Николай Ковальский
    Сценарий: Анатолий Козак, Л.Остроумов
    Композитор: Виктор Лебедев
    В ролях: Максим Минин, Сергей Савватеев, Олег Борисов, Владимир Этуш, Александр Леньков, Ангелина Полянчукова, Иван Краско, Андрей Ростоцкий, Игорь Дмитриев
    Описание: Юные герои фильма, подростки, переживают множество увлекательных и опасных приключений, активно участвуя в событиях гражданской войны...
    Доп. информация: Данный рип 3-х-серийного фильма сделан одним файлом

    Формат видео: AVI
    Качество видео: DVDRip (DVD9)
    Видео кодек: XviD
    Аудио кодек: MP3
    Видео: XviD, 640х496, 25fps, 969kbps
    Аудио: MPEG Layer 3, 48000Hz, 128kbps, stereo


    Complete name : Makar.Sledopyt.1984.O.DVDRip.1400.MediaClub.CurHaJI.avi
    Format : AVI
    Format/Info : Audio Video Interleave
    File size : 1.45 GiB
    Duration : 3h 7mn
    Overall bit rate : 1 107 Kbps
    Movie name : Makar.Sledopyt.1984.O.DVDRip.1400.MediaClub.CurHaJI
    Writing application : VirtualDubMod | || (build 2550/release)
    Writing library : VirtualDub build 35491/release
    ID : 0
    Format : MPEG-4 Visual
    Format profile : Advanced Simple@L5
    Format settings, BVOP : 2
    Format settings, QPel : No
    Format settings, GMC : No warppoints
    Format settings, Matrix : Custom
    Codec ID : XVID
    Codec ID/Hint : XviD
    Duration : 3h 7mn
    Bit rate : 969 Kbps
    Width : 640 pixels
    Height : 496 pixels
    Display aspect ratio : 1.290
    Frame rate : 25.000 fps
    Color space : YUV
    Chroma subsampling : 4:2:0
    Bit depth : 8 bits
    Scan type : Progressive
    Compression mode : Lossy
    Bits/(Pixel*Frame) : 0.122
    Stream size : 1.27 GiB (88%)
    Writing library : XviD 1.2.1 (UTC 2008-12-04)
    ID : 1
    Format : MPEG Audio
    Format version : Version 1
    Format profile : Layer 3
    Codec ID : 55
    Codec ID/Hint : MP3
    Duration : 3h 7mn
    Bit rate mode : Constant
    Bit rate : 128 Kbps
    Channel(s) : 2 channels
    Sampling rate : 48.0 KHz
    Compression mode : Lossy
    Stream size : 172 MiB (12%)
    Alignment : Aligned on interleaves
    Interleave, duration : 40 ms (1.00 video frame)
    Interleave, preload duration : 504 ms
    Writing library : L3.99r
    Encoding settings : -m s -V 4 -q 2 -lowpass 17 -b 128


    Download .torrent

    Download free and at maximum speed!

    How to Download? · What is a torrent? · Ratings and Limitations

    The site does not extend and does not store electronic(digital) versions of products, and only gives access to a reference catalogue created by users on torrent-files which contain only lists of the hash-sums, the earnest entreaty, with complaints(abuse) to access directly to the user. Files for an exchange on tracker are given by users of a site, and the administration does not bear the responsibility for their maintenance. The request to not fill in the files protected by copyrights, and also files of the illegal maintenance!

    [Profile] [PM]
    Display posts from previous:    
    Reply to topic

    The time now is: Today 23:42

    All times are GMT + 3 Hours

    You cannot post new topics in this forum
    You cannot reply to topics in this forum
    You cannot edit your posts in this forum
    You cannot delete your posts in this forum
    You cannot vote in polls in this forum
    You cannot attach files in this forum
    You cannot download files in this forum