BitTorrentTracker PerecTracker.org
BitTorrentTracker PerecTracker.org
    
Регистрация  ·  Вход
 
 · 
Забыли пароль?

  • Какое оно, море? (Эдуард Бочаров) [1964, киноповесть, экранизация, DVB]

    Ответить на тему
     
    Автор Сообщение

    Light

    Создавать темы 21-Мар-2015 19:55

           

    [Цитировать]

    Какое оно, море?
    26.12.14 торрент обновлен, запись трансляции ТК "RTVI" заменена на запись трансляции ТК "Культура". Преимущества - битрейт видео 5200 против 1200, звук 256 против 192
    Жанр: киноповесть, экранизация
    Год выпуска: 1964
    Продолжительность: 01:16:35
    Режиссёр: Эдуард Бочаров
    В ролях: Андрей Бухаров, Таня Антипина, Николай Крючков, Василий Шукшин, Лидия Федосеева-Шукшина, Виллор Кузнецов, Вадим Захарченко, Иван Жеваго, Станислав Любшин, Светлана Дружинина
    Описание: По мотивам повести Николая Дубова "Мальчик у моря".
    Сашке было всего шесть лет, когда он впервые отправился с рыбачьей артелью в море во время путины. Зоркий взгляд мальчугана следил за каждым действием и поступком взрослых. И поэтому не удивительно, что к моменту возвращения на берег он стал полноправным членом рыбачьей артели...
    Доп. информация: Запись потока *.ts со спутника Ямал 202, 49° в.д., ремукс в *.mpg программой VideoReDo.
    Постер из коллекции советских киноплакатов tokarevamarina.
    Качество видео: DVB
    Формат видео: MPEG-PS
    Видео: MPEG Video, 720(768)х576 (4:3), 25,000 кадр/сек, 5323 Кбит/сек
    Аудио: MPEG Audio, 48,0 КГц, 2 канала, 256 Кбит/сек

    MediaInfo

    General
    Complete name : X:\Torrent\Какое оно, море (КУЛЬТУРА 49).mpg
    Format : MPEG-PS
    File size : 3.04 GiB
    Duration : 1h 16mn
    Overall bit rate mode : Variable
    Overall bit rate : 5 692 Kbps
    Video
    ID : 224 (0xE0)
    Format : MPEG Video
    Format version : Version 2
    Format profile : Main@Main
    Format settings, BVOP : Yes
    Format settings, Matrix : Custom
    Duration : 1h 16mn
    Bit rate mode : Variable
    Bit rate : 5 323 Kbps
    Maximum bit rate : 15.0 Mbps
    Width : 720 pixels
    Height : 576 pixels
    Display aspect ratio : 4:3
    Frame rate : 25.000 fps
    Standard : PAL
    Color space : YUV
    Chroma subsampling : 4:2:0
    Bit depth : 8 bits
    Scan type : Interlaced
    Scan order : Top Field First
    Compression mode : Lossy
    Bits/(Pixel*Frame) : 0.513
    Stream size : 2.84 GiB (94%)
    Audio
    ID : 192 (0xC0)
    Format : MPEG Audio
    Format version : Version 1
    Format profile : Layer 2
    Duration : 1h 16mn
    Bit rate mode : Constant
    Bit rate : 256 Kbps
    Channel(s) : 2 channels
    Sampling rate : 48.0 KHz
    Compression mode : Lossy
    Delay relative to video : 9ms
    Stream size : 140 MiB (4%)

    Скриншоты

    Скачать .torrent

    Скачать торрент-файл бесплатно и на максимальной скорости!

    Как скачивать? · Что такое торрент? · Рейтинг и ограничения

    !ВНИМАНИЕ!
    Сайт не распространяет и не хранит электронные версии произведений, а занимается лишь лишь предоставлением доступа к создаваемому пользователями каталогу ссылок на торрент-файлы, которые содержат только списки хеш-сумм, убедительная просьба с жалобами обращаться напрямую к пользователю. Файлы для обмена на трекере предоставлены пользователями сайта, и администрация не несёт ответственности за их содержание. Просьба не заливать файлы, защищенные авторскими правами, а также файлы нелегального содержания!


    _________________
    [Профиль] [ЛС]
    Показать сообщения:    
    Ответить на тему

    Текущее время: Сегодня, в 00:05

    Часовой пояс: GMT + 2



    Вы не можете начинать темы
    Вы не можете отвечать на сообщения
    Вы не можете редактировать свои сообщения
    Вы не можете удалять свои сообщения
    Вы не можете голосовать в опросах
    Вы не можете прикреплять файлы к сообщениям
    Вы не можете скачивать файлы