BitTorrentTracker PerecTracker.org
BitTorrentTracker PerecTracker.org
    
Регистрация  ·  Вход
 
 · 
Забыли пароль?

  • Новый Гулливер (Александр Птушко) [1935, сказка, DVDRip]

    Ответить на тему
     
    Автор Сообщение

    Light

    Создавать темы 21-Мар-2015 19:55

           

    [Цитировать]

    Новый Гулливер
    Жанр: сказка
    Год выпуска: 1935
    Продолжительность: 01:12:55
    Режиссёр: Александр Птушко
    В ролях: Владимир Константинов, Иван Юдин, Иван Бобров, Феликс Брест, Юрий Хмельницкий, Михаил Дагмаров, Ака Неусыхин, Борис Евгеньев
    Описание: Пионер Петя Константинов как лучший юный осводовец (ОСВОД - в СССР Общество спасения на водах) в качестве награды получает любимую книгу - "Путешествия Гулливера" Джонатана Свифта. Вместе с другими пионерами, своими руками отремонтировавшими парусную лодку со звучным именем "Артек", он отправляется на прогулку к ближайшему от пионерского лагеря острову. Там на отдыхе ребята просят вожатого прочитать им вслух Петину книгу. Во время чтения мальчик засыпает и видит себя на месте великана, попавшего в страну лиллипутов. Но, поскольку Петя - советский пионер, он относится к событиям в сказочной стране иначе, чем его литературный предшественник...
    Доп. информация:Фильм перешел в общественное достояние.
    Семпл: http://multi-up.com/1023660
    Качество видео: DVDRip
    Формат видео: AVI
    Видео: 656x512 (1.28:1), 25 fps, XviD build 64 ~1942 kbps avg, 0.23 bit/pixel
    Аудио: 48 kHz, AC3 Dolby Digital, 2/0 (L,R) ch, ~192 kbps avg

    MediaInfo

    General
    Complete name : C:\Users\samsung\Videos\Новый Гулливер DVDRip 1935..avi
    Format : AVI
    Format/Info : Audio Video Interleave
    File size : 1.09 GiB
    Duration : 1h 12mn
    Overall bit rate : 2 144 Kbps
    Writing library : VirtualDub build 35390/release
    Video
    ID : 0
    Format : MPEG-4 Visual
    Format profile : Advanced Simple@L5
    Format settings, BVOP : No
    Format settings, QPel : No
    Format settings, GMC : No warppoints
    Format settings, Matrix : Custom
    Codec ID : XVID
    Codec ID/Hint : XviD
    Duration : 1h 12mn
    Bit rate : 1 942 Kbps
    Width : 656 pixels
    Height : 512 pixels
    Display aspect ratio : 1.281
    Frame rate : 25.000 fps
    Color space : YUV
    Chroma subsampling : 4:2:0
    Bit depth : 8 bits
    Scan type : Progressive
    Bits/(Pixel*Frame) : 0.231
    Stream size : 1 013 MiB (91%)
    Writing library : XviD 64
    Audio
    ID : 1
    Format : AC-3
    Format/Info : Audio Coding 3
    Mode extension : CM (complete main)
    Codec ID : 2000
    Duration : 1h 12mn
    Bit rate mode : Constant
    Bit rate : 192 Kbps
    Channel(s) : 2 channels
    Channel positions : Front: L R
    Sampling rate : 48.0 KHz
    Bit depth : 16 bits
    Stream size : 100 MiB (9%)
    Alignment : Aligned on interleaves
    Interleave, duration : 40 ms (1.00 video frame)
    Interleave, preload duration : 512 ms

    Скриншоты

    Скачать .torrent

    Скачать торрент-файл бесплатно и на максимальной скорости!

    Как скачивать? · Что такое торрент? · Рейтинг и ограничения

    !ВНИМАНИЕ!
    Сайт не распространяет и не хранит электронные версии произведений, а занимается лишь лишь предоставлением доступа к создаваемому пользователями каталогу ссылок на торрент-файлы, которые содержат только списки хеш-сумм, убедительная просьба с жалобами обращаться напрямую к пользователю. Файлы для обмена на трекере предоставлены пользователями сайта, и администрация не несёт ответственности за их содержание. Просьба не заливать файлы, защищенные авторскими правами, а также файлы нелегального содержания!


    _________________
    [Профиль] [ЛС]
    Показать сообщения:    
    Ответить на тему

    Текущее время: Сегодня, в 04:38

    Часовой пояс: GMT + 2



    Вы не можете начинать темы
    Вы не можете отвечать на сообщения
    Вы не можете редактировать свои сообщения
    Вы не можете удалять свои сообщения
    Вы не можете голосовать в опросах
    Вы не можете прикреплять файлы к сообщениям
    Вы не можете скачивать файлы