Register  ·  Log in
Forgot password?

  • Подарок чёрного колдуна (Борис Рыцарев) [1978, приключения, сказка, DVB]

    Reply to topic
    Author Message


    Post 21-Mar-2015 20:55



    Подарок чёрного колдуна
    Жанр: приключения, сказка
    Год выпуска: 1978
    Продолжительность: 00:59:55
    Режиссёры: Борис Рыцарев
    В ролях: Елена Кондратьева, Борис Щербаков, Лариса Данилина, Лия Ахеджакова, Виктор Сергачев, Алексей Чернов, Евгений Гуров, Лев Круглый, Светлана Орлова, Алексей Дроздов
    Описание: Когда еще Василиса была маленькая, черный колдун принес ее матери зловещий подарок — сундучок с заколдованным свадебным платьем. Надев его, Василиса могла загадать желание, и оно непременно бы исполнилось. Однажды девушка приревновала кузнеца Ивана, и его глаза перестали видеть. Василисе пришлось пройти испытания и строго выполнить наказ колдуна, чтобы вернуть зрение Ивану...
    Доп. информация: по мотивам русских народных сказок

    Качество видео: DVB (Yamal 402 at 54.9°E)
    Формат видео: MPEG-PS
    Видео: MPEG2 Video, 720x576 (4:3), 25 fps, 4500 kbps
    Аудио: MPEG Audiо, 2 сh, 48 kHz, 192 kbps


    Complete name : G:\Подарок черного колдуна. (1978)_DVB by SLuMeP.mpg
    Format : MPEG-PS
    File size : 1.99 GiB
    Duration : 59mn 55s
    Overall bit rate mode : Variable
    Overall bit rate : 4 744 Kbps
    Writing library : (dvd5: Jun 16 2014)
    ID : 224 (0xE0)
    Format : MPEG Video
    Format version : Version 2
    Format profile : Main@Main
    Format settings, BVOP : Yes
    Format settings, Matrix : Custom
    Format settings, GOP : M=3, N=12
    Duration : 59mn 55s
    Bit rate mode : Variable
    Bit rate : 4 458 Kbps
    Maximum bit rate : 15.0 Mbps
    Width : 720 pixels
    Height : 576 pixels
    Display aspect ratio : 4:3
    Frame rate : 25.000 fps
    Standard : PAL
    Color space : YUV
    Chroma subsampling : 4:2:0
    Bit depth : 8 bits
    Scan type : Interlaced
    Scan order : Top Field First
    Compression mode : Lossy
    Bits/(Pixel*Frame) : 0.430
    Time code of first frame : 00:00:00:00
    Time code source : Group of pictures header
    Stream size : 1.87 GiB (94%)
    Source encoded stream size : (dvd5: Jun 16 2014)
    Writing library : (dvd5: Jun 16 2014)
    ID : 192 (0xC0)
    Format : MPEG Audio
    Format version : Version 1
    Format profile : Layer 2
    Duration : 59mn 55s
    Bit rate mode : Constant
    Bit rate : 192 Kbps
    Channel(s) : 2 channels
    Sampling rate : 48.0 KHz
    Compression mode : Lossy
    Delay relative to video : -40ms
    Stream size : 82.3 MiB (4%)


    Download .torrent

    Download free and at maximum speed!

    How to Download? · What is a torrent? · Ratings and Limitations

    The site does not extend and does not store electronic(digital) versions of products, and only gives access to a reference catalogue created by users on torrent-files which contain only lists of the hash-sums, the earnest entreaty, with complaints(abuse) to access directly to the user. Files for an exchange on tracker are given by users of a site, and the administration does not bear the responsibility for their maintenance. The request to not fill in the files protected by copyrights, and also files of the illegal maintenance!

    [Profile] [PM]
    Display posts from previous:    
    Reply to topic

    The time now is: Today 19:42

    All times are GMT + 3 Hours

    You cannot post new topics in this forum
    You cannot reply to topics in this forum
    You cannot edit your posts in this forum
    You cannot delete your posts in this forum
    You cannot vote in polls in this forum
    You cannot attach files in this forum
    You cannot download files in this forum