BitTorrentTracker PerecTracker.org
BitTorrentTracker PerecTracker.org
    
Регистрация  ·  Вход
 
 · 
Забыли пароль?

  • Сказка как сказка (Олег Бийма) [1978, Мюзикл, сказка, детский, семейный, SATRip]

    Ответить на тему
     
    Автор Сообщение

    Light

    Создавать темы 21-Мар-2015 19:55

           

    [Цитировать]

    Сказка как сказка
    Жанр: Мюзикл, сказка, детский, семейный
    Год выпуска: 1978
    Продолжительность: 01:01:26
    Режиссёр: Олег Бийма
    В ролях: Надежда Смирнова, Андрей Градов, Нина Ильина, Галина Логинова, Сергей Свечников, Евгений Мартынов, Василий Подберезкин, Андрей Подубинский, Евгений Паперный, Виктор Панченко, Александр Толстых, Олег Комаров (I), Надежда Чепрага
    Описание: В некотором царстве жила была принцесса. Когда ей исполнилось 16 лет Добрая фея сделала ей особенный подарок. Но Злая фея решила этому помешать.
    Семпл: http://sendfile.su/1069296
    Качество видео: SATRip
    Формат видео: AVI
    Видео: XviD 5 672x504 25,000fps 1800Kbps
    Аудио: MPEG Audio Layer 3 48000Hz stereo 192Kbps

    MediaInfo

    Общее
    Полное имя : D:\skazka.kak.skazka.avi
    Формат : AVI
    Формат/Информация : Audio Video Interleave
    Размер файла : 879 Мбайт
    Продолжительность : 1 ч. 1 м.
    Общий поток : 2001 Кбит/сек
    Режиссёр : SATrip by Animat
    Программа кодирования : VirtualDubMod 1.5.10.2 (build 2540/release)
    Библиотека кодирования : VirtualDubMod build 2540/release
    Видео
    Идентификатор : 0
    Формат : MPEG-4 Visual
    Профиль формата : Advanced Simple@L5
    Параметр BVOP формата : 2
    Параметр QPel формата : Нет
    Параметр GMC формата : Без точки перехода
    Параметр матрицы формата : Default (MPEG)
    Режим смешивания : Сжатый битовый поток
    Идентификатор кодека : XVID
    Идентификатор кодека/Подсказка : XviD
    Продолжительность : 1 ч. 1 м.
    Битрейт : 1800 Кбит/сек
    Ширина : 672 пикселя
    Высота : 504 пикселя
    Соотношение сторон : 4:3
    Частота кадров : 25,000 кадров/сек
    Цветовое пространство : YUV
    Субдискретизация насыщенности : 4:2:0
    Битовая глубина : 8 бит
    Тип развёртки : Прогрессивная
    Метод сжатия : С потерями
    Бит/(Пиксели*Кадры) : 0.213
    Размер потока : 791 Мбайт (90%)
    Библиотека кодирования : XviD 1.1.2 (UTC 2006-11-01)
    Аудио
    Идентификатор : 1
    Формат : MPEG Audio
    Версия формата : Version 1
    Профиль формата : Layer 2
    Идентификатор кодека : 50
    Продолжительность : 1 ч. 1 м.
    Вид битрейта : Постоянный
    Битрейт : 192 Кбит/сек
    Каналы : 2 канала
    Частота : 48,0 КГц
    Метод сжатия : С потерями
    Задержка видео : 15 мс.
    Размер потока : 84,4 Мбайт (10%)
    Выравнивание : Разделение по промежуткам
    Продолжительность промежутка : 40 мс. (1,00 видеокадр)
    Время предзагрузки промежутка : 500 мс.

    Скриншоты

    Скачать .torrent

    Скачать торрент-файл бесплатно и на максимальной скорости!

    Как скачивать? · Что такое торрент? · Рейтинг и ограничения

    !ВНИМАНИЕ!
    Сайт не распространяет и не хранит электронные версии произведений, а занимается лишь лишь предоставлением доступа к создаваемому пользователями каталогу ссылок на торрент-файлы, которые содержат только списки хеш-сумм, убедительная просьба с жалобами обращаться напрямую к пользователю. Файлы для обмена на трекере предоставлены пользователями сайта, и администрация не несёт ответственности за их содержание. Просьба не заливать файлы, защищенные авторскими правами, а также файлы нелегального содержания!


    _________________
    [Профиль] [ЛС]
    Показать сообщения:    
    Ответить на тему

    Текущее время: Сегодня, в 06:13

    Часовой пояс: GMT + 2



    Вы не можете начинать темы
    Вы не можете отвечать на сообщения
    Вы не можете редактировать свои сообщения
    Вы не можете удалять свои сообщения
    Вы не можете голосовать в опросах
    Вы не можете прикреплять файлы к сообщениям
    Вы не можете скачивать файлы