BitTorrentTracker PerecTracker.org
BitTorrentTracker PerecTracker.org
    
Регистрация  ·  Вход
 
 · 
Забыли пароль?

  • Каин XVIII (Надежда Кошеверова, Михаил Шапиро) [1963, сказка, DVDRip-AVC]

    Ответить на тему
     
    Автор Сообщение

    Light

    Создавать темы 21-Мар-2015 19:55

           

    [Цитировать]

    Каин XVIII-Жанр: сказка
    Год выпуска: 1963
    Продолжительность: 01:29:09-Режиссёры: Надежда Кошеверова, Михаил Шапиро-В ролях:
    Александр Демьяненко, Лидия Сухаревская, Эраст Гарин, Юрий Любимов, Михаил Жаров, Рина Зеленая, Бруно Фрейндлих, Михаил Глузский, Георгий Вицин, Борис Чирков, Яков Гудкин, Борис Аракелов, Станислав Хитров, Гликерия Богданова-Чеснокова
    Описание:
    Бродячие музыканты Ян и Жан отправляются в страну короля Каина, полицейское государство, в котором предательство и подлость возведены в почет. Ян влюбляется в принцессу, которую хотят отдать за старика-короля Каина из соседнего королевства, самодура и пошлеца. Но любовь преодолевает преграды и соединяет сердца влюбленных…-Исходник | Сэмпл | Кинопоиск-Качество видео: DVDRip-AVC, спасибо intellect за исходный DVD.
    Формат видео: MKV
    Видео: x264 (High@L4.1); 716@763x576, Display aspect ratio 1.325:1, 25.000 fps, 2469 Kbps
    Аудио: Оригинал: AC-3; 16 bits 48 Khz; 2.0 ch 192 Kbps; CBR
    MediaInfo

    -

    x264 log

    avs [info]: 716x576p 16:15 @ 25/1 fps (cfr)
    x264 [info]: using SAR=16/15
    x264 [info]: using cpu capabilities: MMX2 SSE2Fast SSSE3 SSE4.2
    x264 [info]: profile High, level 4.1
    x264 [info]: frame I:772 Avg QP:19.83 size: 41516
    x264 [info]: frame P:26447 Avg QP:21.43 size: 27014
    x264 [info]: frame B:106506 Avg QP:24.12 size: 8491
    x264 [info]: consecutive B-frames: 1.2% 0.8% 13.2% 2.3% 3.1% 77.9% 1.3% 0.0% 0.2%
    x264 [info]: mb I I16..4: 7.2% 84.6% 8.2%
    x264 [info]: mb P I16..4: 1.2% 31.2% 1.1% P16..4: 26.1% 26.1% 9.5% 0.9% 0.1% skip: 3.8%
    x264 [info]: mb B I16..4: 0.3% 7.3% 0.1% B16..8: 40.2% 15.5% 2.3% direct: 5.7% skip:28.6% L0:37.1% L1:37.0% BI:25.9%
    x264 [info]: 8x8 transform intra:93.4% inter:74.8%
    x264 [info]: coded y,uvDC,uvAC intra: 92.0% 76.0% 30.4% inter: 25.6% 27.0% 3.1%
    x264 [info]: i16 v,h,dc,p: 39% 11% 14% 36%
    x264 [info]: i8 v,h,dc,ddl,ddr,vr,hd,vl,hu: 14% 9% 30% 7% 7% 8% 7% 8% 10%
    x264 [info]: i4 v,h,dc,ddl,ddr,vr,hd,vl,hu: 21% 8% 5% 8% 12% 16% 11% 10% 8%
    x264 [info]: i8c dc,h,v,p: 23% 35% 30% 12%
    x264 [info]: Weighted P-Frames: Y:32.2% UV:21.4%
    x264 [info]: ref P L0: 39.5% 12.0% 15.2% 7.3% 5.7% 4.2% 3.4% 2.1% 1.9% 1.6% 1.5% 1.3% 1.3% 1.1% 1.1% 0.8%
    x264 [info]: ref B L0: 79.1% 8.8% 3.2% 2.0% 1.4% 1.2% 0.9% 0.7% 0.6% 0.5% 0.5% 0.5% 0.4% 0.3% 0.1%
    x264 [info]: ref B L1: 96.0% 4.0%
    x264 [info]: kb/s:2468.98
    x264 [total]: encoded 133725 frames, 10.48 fps, 2468.98 kb/s
    -General
    Unique ID : 205769229166381922659424930424784728147 (0x9ACDB646306C208192ABA3A04F38B053)
    Complete name : Каин XVIII.1963.mkv
    Format : Matroska
    Format version : Version 2
    File size : 1.66 GiB
    Duration : 1h 29mn
    Overall bit rate : 2 663 Kbps
    Movie name : «Каин XVIII»
    Encoded date : UTC 2015-01-03 11:33:33
    Writing application : mkvmerge v5.8.0 ('No Sleep / Pillow') built on Sep 2 2012 15:37:04
    Writing library : libebml v1.2.3 + libmatroska v1.3.0
    Comment : DVDRip-AVC
    Originally released : December 30th 2014
    Encoded by : george$t®
    Video
    ID : 1
    Format : AVC
    Format/Info : Advanced Video Codec
    Format profile : High@L4.1
    Format settings, CABAC : Yes
    Format settings, ReFrames : 16 frames
    Codec ID : V_MPEG4/ISO/AVC
    Duration : 1h 29mn
    Bit rate : 2 418 Kbps
    Width : 716 pixels
    Height : 576 pixels
    Display aspect ratio : 4:3
    Original display aspect ratio : 4:3
    Frame rate mode : Constant
    Frame rate : 25.000 fps
    Color space : YUV
    Chroma subsampling : 4:2:0
    Bit depth : 8 bits
    Scan type : Progressive
    Bits/(Pixel*Frame) : 0.234
    Stream size : 1.51 GiB (91%)
    Title : Каин XVIII.1963
    Writing library : x264 core 130 r2273 b3065e6
    Encoding settings : cabac=1 / ref=16 / deblock=1:-1:0 / analyse=0x3:0x133 / me=umh / subme=11 / psy=1 / psy_rd=1.10:0.10 / mixed_ref=1 / me_range=48 / chroma_me=1 / trellis=2 / 8x8dct=1 / cqm=0 / deadzone=21,11 / fast_pskip=1 / chroma_qp_offset=-3 / threads=12 / lookahead_threads=2 / sliced_threads=0 / nr=0 / decimate=1 / interlaced=0 / bluray_compat=0 / constrained_intra=0 / bframes=8 / b_pyramid=2 / b_adapt=2 / b_bias=0 / direct=1 / weightb=1 / open_gop=0 / weightp=2 / keyint=250 / keyint_min=25 / scenecut=40 / intra_refresh=0 / rc_lookahead=60 / rc=crf / mbtree=1 / crf=20.2 / qcomp=0.65 / qpmin=0 / qpmax=32 / qpstep=4 / vbv_maxrate=50000 / vbv_bufsize=62500 / crf_max=0.0 / nal_hrd=none / ip_ratio=1.20 / aq=1:1.00
    Language : Russian
    Default : Yes
    Forced : No
    Color primaries : BT.601 PAL
    Transfer characteristics : BT.470 System B, BT.470 System G
    Matrix coefficients : BT.601
    Audio
    ID : 2
    Format : AC-3
    Format/Info : Audio Coding 3
    Mode extension : CM (complete main)
    Format settings, Endianness : Big
    Codec ID : A_AC3
    Duration : 1h 29mn
    Bit rate mode : Constant
    Bit rate : 192 Kbps
    Channel(s) : 2 channels
    Channel positions : Front: L R
    Sampling rate : 48.0 KHz
    Bit depth : 16 bits
    Compression mode : Lossy
    Stream size : 122 MiB (7%)
    Title : Оригинал: AC-3; 16 bits 48 Khz; 2.0 ch 192 Kbps; CBR
    Language : Russian
    Default : Yes
    Forced : No
    Скачать .torrent

    Скачать торрент-файл бесплатно и на максимальной скорости!

    Как скачивать? · Что такое торрент? · Рейтинг и ограничения

    !ВНИМАНИЕ!
    Сайт не распространяет и не хранит электронные версии произведений, а занимается лишь лишь предоставлением доступа к создаваемому пользователями каталогу ссылок на торрент-файлы, которые содержат только списки хеш-сумм, убедительная просьба с жалобами обращаться напрямую к пользователю. Файлы для обмена на трекере предоставлены пользователями сайта, и администрация не несёт ответственности за их содержание. Просьба не заливать файлы, защищенные авторскими правами, а также файлы нелегального содержания!


    _________________
    [Профиль] [ЛС]
    Показать сообщения:    
    Ответить на тему

    Текущее время: Сегодня, в 00:31

    Часовой пояс: GMT + 2



    Вы не можете начинать темы
    Вы не можете отвечать на сообщения
    Вы не можете редактировать свои сообщения
    Вы не можете удалять свои сообщения
    Вы не можете голосовать в опросах
    Вы не можете прикреплять файлы к сообщениям
    Вы не можете скачивать файлы