BitTorrentTracker PerecTracker.org
BitTorrentTracker PerecTracker.org
    
Регистрация  ·  Вход
 
 · 
Забыли пароль?

  • Зверобой (Андрей Ростоцкий) [1990, приключения, DVDRip-AVC]

    Ответить на тему
     
    Автор Сообщение

    Light

    Создавать темы 21-Мар-2015 19:55

           

    [Цитировать]

    Зверобой (2 серии)-Жанр: приключения
    Год выпуска: 1990
    Продолжительность: 01:11:38 + 01:11:56-Режиссёр: Андрей Ростоцкий-В ролях:
    Андрей Хворов, Павел Абдалов, Георгий Пицхелаури, Елена Кондулайнен, Ольга Машная, Наталья Табакова, Борис Миронов, Эдуард Мурашов, Сергей Лоздейский, Всеволод Хабаров, Владимир Епископосян, Владимир Пивоваров, Владимир Бадов, Галина Кондрашова, Семен Заков
    Описание:
    Фильм снят по мотивам одноименного романа Фенимора Купера. Середина XVIII века. Колониальный раздел Северной Америки продолжается. Борьба Англии и Франции за территориальное господство сделала врагами индейские племена и европейских переселенцев.-Сэмпл | Кинопоиск-Качество видео: DVDRip-AVC, спасибо Lord Protector за исходный DVD.
    Формат видео: MKV
    Видео: x264 (High@L4.1); 720@768x574, Display aspect ratio 1.338:1, 25.000 fps, 1980 Kbps
    Аудио: Оригинал: AC-3; 16 bits 48 Khz; 2.0 ch 192 Kbps; CBR
    MediaInfo
    1 серия

    -

    x264 log

    avs [info]: 720x574p 16:15 @ 25/1 fps (cfr)
    x264 [info]: using SAR=16/15
    x264 [info]: using cpu capabilities: MMX2 SSE2Fast SSSE3 SSE4.2
    x264 [info]: profile High, level 4.1
    x264 [info]: frame I:732 Avg QP:18.17 size: 56393
    x264 [info]: frame P:22100 Avg QP:20.46 size: 23323
    x264 [info]: frame B:84634 Avg QP:23.77 size: 5994
    x264 [info]: consecutive B-frames: 1.8% 2.3% 6.6% 12.5% 9.2% 63.7% 2.6% 0.6% 0.5% 0.1% 0.1%
    x264 [info]: mb I I16..4: 4.8% 84.9% 10.4%
    x264 [info]: mb P I16..4: 0.4% 11.2% 0.8% P16..4: 34.4% 36.8% 13.8% 1.7% 0.2% skip: 0.7%
    x264 [info]: mb B I16..4: 0.1% 1.8% 0.1% B16..8: 35.2% 16.6% 2.3% direct: 8.1% skip:36.0% L0:39.6% L1:38.6% BI:21.8%
    x264 [info]: 8x8 transform intra:90.0% inter:70.0%
    x264 [info]: direct mvs spatial:99.0% temporal:1.0%
    x264 [info]: coded y,uvDC,uvAC intra: 93.4% 80.8% 42.4% inter: 29.8% 26.1% 7.2%
    x264 [info]: i16 v,h,dc,p: 17% 16% 9% 58%
    x264 [info]: i8 v,h,dc,ddl,ddr,vr,hd,vl,hu: 11% 11% 6% 9% 11% 12% 12% 13% 15%
    x264 [info]: i4 v,h,dc,ddl,ddr,vr,hd,vl,hu: 11% 9% 3% 8% 15% 15% 15% 11% 13%
    x264 [info]: i8c dc,h,v,p: 33% 26% 23% 18%
    x264 [info]: Weighted P-Frames: Y:25.4% UV:10.6%
    x264 [info]: ref P L0: 37.5% 13.0% 16.0% 6.9% 5.9% 4.4% 3.9% 2.0% 1.9% 1.6% 1.6% 1.3% 1.3% 1.1% 1.1% 0.7%
    x264 [info]: ref B L0: 77.0% 10.6% 3.6% 2.0% 1.4% 1.3% 0.9% 0.6% 0.5% 0.5% 0.4% 0.4% 0.3% 0.2% 0.1%
    x264 [info]: ref B L1: 95.3% 4.7%
    x264 [info]: kb/s:1980.12
    x264 [total]: encoded 107466 frames, 11.81 fps, 1980.12 kb/s
    -General
    Unique ID : 218601768387378509124612708788678510129 (0xA4752B4E49A6D600A60228A2CE814631)
    Complete name : Зверобой.1990.1 серия.mkv
    Format : Matroska
    Format version : Version 2
    File size : 1.09 GiB
    Duration : 1h 11mn
    Overall bit rate : 2 174 Kbps
    Movie name : «Зверобой»
    Encoded date : UTC 2014-12-31 16:43:59
    Writing application : mkvmerge v5.8.0 ('No Sleep / Pillow') built on Sep 2 2012 15:37:04
    Writing library : libebml v1.2.3 + libmatroska v1.3.0
    Comment : DVDRip-AVC
    Originally released : December 31st 2014
    Encoded by : george$t®
    Video
    ID : 1
    Format : AVC
    Format/Info : Advanced Video Codec
    Format profile : High@L4.1
    Format settings, CABAC : Yes
    Format settings, ReFrames : 16 frames
    Codec ID : V_MPEG4/ISO/AVC
    Duration : 1h 11mn
    Bit rate : 1 980 Kbps
    Width : 720 pixels
    Height : 574 pixels
    Display aspect ratio : 4:3
    Frame rate mode : Constant
    Frame rate : 25.000 fps
    Color space : YUV
    Chroma subsampling : 4:2:0
    Bit depth : 8 bits
    Scan type : Progressive
    Bits/(Pixel*Frame) : 0.192
    Stream size : 993 MiB (89%)
    Title : Зверобой.1990.1 серия
    Writing library : x264 core 130 r2273 b3065e6
    Encoding settings : cabac=1 / ref=16 / deblock=1:-1:-1 / analyse=0x3:0x133 / me=umh / subme=11 / psy=1 / psy_rd=1.03:0.10 / mixed_ref=1 / me_range=48 / chroma_me=1 / trellis=2 / 8x8dct=1 / cqm=0 / deadzone=21,11 / fast_pskip=0 / chroma_qp_offset=-3 / threads=12 / lookahead_threads=3 / sliced_threads=0 / nr=0 / decimate=0 / interlaced=0 / bluray_compat=0 / constrained_intra=0 / bframes=10 / b_pyramid=2 / b_adapt=2 / b_bias=0 / direct=3 / weightb=1 / open_gop=0 / weightp=2 / keyint=250 / keyint_min=25 / scenecut=40 / intra_refresh=0 / rc_lookahead=60 / rc=2pass / mbtree=1 / bitrate=1980 / ratetol=1.0 / qcomp=0.65 / qpmin=0 / qpmax=32 / qpstep=4 / cplxblur=20.0 / qblur=0.5 / vbv_maxrate=50000 / vbv_bufsize=62500 / nal_hrd=none / ip_ratio=1.20 / aq=1:0.90
    Language : Russian
    Default : Yes
    Forced : No
    Color primaries : BT.601 PAL
    Transfer characteristics : BT.470 System B, BT.470 System G
    Matrix coefficients : BT.601
    Audio
    ID : 2
    Format : AC-3
    Format/Info : Audio Coding 3
    Mode extension : CM (complete main)
    Format settings, Endianness : Big
    Codec ID : A_AC3
    Duration : 1h 11mn
    Bit rate mode : Constant
    Bit rate : 192 Kbps
    Channel(s) : 2 channels
    Channel positions : Front: L R
    Sampling rate : 48.0 KHz
    Bit depth : 16 bits
    Compression mode : Lossy
    Stream size : 98.4 MiB (9%)
    Title : Оригинал: AC-3; 16 bits 48 Khz; 2.0 ch 192 Kbps; CBR
    Language : Russian
    Default : Yes
    Forced : No
    2 серия

    -

    x264 log

    avs [info]: 720x574p 16:15 @ 25/1 fps (cfr)
    x264 [info]: using SAR=16/15
    x264 [info]: using cpu capabilities: MMX2 SSE2Fast SSSE3 SSE4.2
    x264 [info]: profile High, level 4.1
    x264 [info]: frame I:759 Avg QP:18.78 size: 55671
    x264 [info]: frame P:21854 Avg QP:20.62 size: 23774
    x264 [info]: frame B:85291 Avg QP:23.99 size: 5936
    x264 [info]: consecutive B-frames: 1.8% 2.4% 5.2% 12.1% 8.7% 65.2% 2.9% 0.9% 0.7% 0.1% 0.1%
    x264 [info]: mb I I16..4: 3.3% 86.3% 10.4%
    x264 [info]: mb P I16..4: 0.4% 10.7% 0.8% P16..4: 35.1% 37.0% 13.9% 1.6% 0.1% skip: 0.4%
    x264 [info]: mb B I16..4: 0.1% 1.7% 0.1% B16..8: 35.5% 16.7% 2.1% direct: 9.0% skip:34.8% L0:40.3% L1:37.3% BI:22.4%
    x264 [info]: 8x8 transform intra:90.5% inter:71.0%
    x264 [info]: direct mvs spatial:99.1% temporal:0.9%
    x264 [info]: coded y,uvDC,uvAC intra: 94.7% 81.7% 41.2% inter: 31.8% 29.8% 7.3%
    x264 [info]: i16 v,h,dc,p: 14% 15% 5% 66%
    x264 [info]: i8 v,h,dc,ddl,ddr,vr,hd,vl,hu: 12% 12% 5% 8% 11% 12% 12% 13% 14%
    x264 [info]: i4 v,h,dc,ddl,ddr,vr,hd,vl,hu: 12% 10% 3% 8% 14% 15% 14% 11% 12%
    x264 [info]: i8c dc,h,v,p: 30% 27% 24% 19%
    x264 [info]: Weighted P-Frames: Y:27.4% UV:11.4%
    x264 [info]: ref P L0: 35.6% 13.9% 15.9% 7.1% 6.0% 4.5% 3.9% 2.1% 2.0% 1.7% 1.7% 1.4% 1.3% 1.1% 1.2% 0.8%
    x264 [info]: ref B L0: 75.6% 11.1% 3.8% 2.1% 1.5% 1.4% 1.0% 0.7% 0.5% 0.6% 0.4% 0.5% 0.4% 0.3% 0.1%
    x264 [info]: ref B L1: 95.5% 4.5%
    x264 [info]: kb/s:1979.78
    x264 [total]: encoded 107904 frames, 11.88 fps, 1979.78 kb/s
    -General
    Unique ID : 252401579662117060984864017911233304502 (0xBDE2C6A9C895CD6DB97625F54182D7B6)
    Complete name : Зверобой.1990.2 серия.mkv
    Format : Matroska
    Format version : Version 2
    File size : 1.09 GiB
    Duration : 1h 11mn
    Overall bit rate : 2 174 Kbps
    Movie name : «Зверобой»
    Encoded date : UTC 2014-12-31 16:45:49
    Writing application : mkvmerge v5.8.0 ('No Sleep / Pillow') built on Sep 2 2012 15:37:04
    Writing library : libebml v1.2.3 + libmatroska v1.3.0
    Comment : DVDRip-AVC
    Originally released : December 31st 2014
    Encoded by : george$t®
    Video
    ID : 1
    Format : AVC
    Format/Info : Advanced Video Codec
    Format profile : High@L4.1
    Format settings, CABAC : Yes
    Format settings, ReFrames : 16 frames
    Codec ID : V_MPEG4/ISO/AVC
    Duration : 1h 11mn
    Bit rate : 1 980 Kbps
    Width : 720 pixels
    Height : 574 pixels
    Display aspect ratio : 4:3
    Frame rate mode : Constant
    Frame rate : 25.000 fps
    Color space : YUV
    Chroma subsampling : 4:2:0
    Bit depth : 8 bits
    Scan type : Progressive
    Bits/(Pixel*Frame) : 0.192
    Stream size : 997 MiB (89%)
    Title : Зверобой.1990.2 серия
    Writing library : x264 core 130 r2273 b3065e6
    Encoding settings : cabac=1 / ref=16 / deblock=1:-1:-1 / analyse=0x3:0x133 / me=umh / subme=11 / psy=1 / psy_rd=1.03:0.10 / mixed_ref=1 / me_range=48 / chroma_me=1 / trellis=2 / 8x8dct=1 / cqm=0 / deadzone=21,11 / fast_pskip=0 / chroma_qp_offset=-3 / threads=12 / lookahead_threads=3 / sliced_threads=0 / nr=0 / decimate=0 / interlaced=0 / bluray_compat=0 / constrained_intra=0 / bframes=10 / b_pyramid=2 / b_adapt=2 / b_bias=0 / direct=3 / weightb=1 / open_gop=0 / weightp=2 / keyint=250 / keyint_min=25 / scenecut=40 / intra_refresh=0 / rc_lookahead=60 / rc=2pass / mbtree=1 / bitrate=1980 / ratetol=1.0 / qcomp=0.65 / qpmin=0 / qpmax=32 / qpstep=4 / cplxblur=20.0 / qblur=0.5 / vbv_maxrate=50000 / vbv_bufsize=62500 / nal_hrd=none / ip_ratio=1.20 / aq=1:0.90
    Language : Russian
    Default : Yes
    Forced : No
    Color primaries : BT.601 PAL
    Transfer characteristics : BT.470 System B, BT.470 System G
    Matrix coefficients : BT.601
    Audio
    ID : 2
    Format : AC-3
    Format/Info : Audio Coding 3
    Mode extension : CM (complete main)
    Format settings, Endianness : Big
    Codec ID : A_AC3
    Duration : 1h 11mn
    Bit rate mode : Constant
    Bit rate : 192 Kbps
    Channel(s) : 2 channels
    Channel positions : Front: L R
    Sampling rate : 48.0 KHz
    Bit depth : 16 bits
    Compression mode : Lossy
    Stream size : 98.8 MiB (9%)
    Title : Оригинал: AC-3; 16 bits 48 Khz; 2.0 ch 192 Kbps; CBR
    Language : Russian
    Default : Yes
    Forced : No
    Скачать .torrent

    Скачать торрент-файл бесплатно и на максимальной скорости!

    Как скачивать? · Что такое торрент? · Рейтинг и ограничения

    !ВНИМАНИЕ!
    Сайт не распространяет и не хранит электронные версии произведений, а занимается лишь лишь предоставлением доступа к создаваемому пользователями каталогу ссылок на торрент-файлы, которые содержат только списки хеш-сумм, убедительная просьба с жалобами обращаться напрямую к пользователю. Файлы для обмена на трекере предоставлены пользователями сайта, и администрация не несёт ответственности за их содержание. Просьба не заливать файлы, защищенные авторскими правами, а также файлы нелегального содержания!


    _________________
    [Профиль] [ЛС]
    Показать сообщения:    
    Ответить на тему

    Текущее время: Сегодня, в 15:52

    Часовой пояс: GMT + 2



    Вы не можете начинать темы
    Вы не можете отвечать на сообщения
    Вы не можете редактировать свои сообщения
    Вы не можете удалять свои сообщения
    Вы не можете голосовать в опросах
    Вы не можете прикреплять файлы к сообщениям
    Вы не можете скачивать файлы