BitTorrentTracker PerecTracker.org
BitTorrentTracker PerecTracker.org
    
Регистрация  ·  Вход
 
 · 
Забыли пароль?

  • Красные дьяволята / Махновщина (Иван Перестиани) [1923, 1943, Приключения, немой, SATRip] [Музыкально-озвученная версия]

    Ответить на тему
     
    Автор Сообщение

    Light

    Создавать темы 21-Мар-2015 19:55

           

    [Цитировать]

    Красные дьяволята / Махновщина [Музыкально-озвученная версия]
    Жанр: Приключения, немой
    Страна: СССР
    Студия: Киносекция Наркомпроса Грузии (1923), Тбилисская киностудия (1943)
    Год выпуска: 1923, 1943 (музыкальное озвучивание)
    Продолжительность: 01:08:30.720 (102768 frames)
    Режиссёр: Иван Перестиани
    В ролях:
    Павел Есиковский … Миша
    Софья Жозеффи-Вахнянская … Дуняша, сестра Миши
    Кадор Бен-Салим … Том Джаксон
    Владимир Сутырин (указано в титрах; в действительности исполнитель Владимир Кучеренко) … батька Махно
    Константин Давидовский … Буденный
    Г.Лейн … Петров, рабочий, отец Миши и Дуняши
    Николай Ниров … Гарбузенко
    Светлана Люкс … Оксана
    Ян Буринский … есаул
    Закарий Беришвили … бандит
    Георгий Макаров … ефрейтор Адольф Попельман, бандит
    Патвакан Бархударян (в титрах – П.Бархударов) … Фриц Пифке
    Д.Светлов … бандит (нет в титрах)
    Николай Нагорный … телеграфист (нет в титрах)
    Виктор Гамкрелидзе …эпизод (нет в титрах)
    Михаил Мирзоян … эпизод (нет в титрах)
    Описание: По одноименной повести Павла Бляхина.
    В одном из украинских поселков живут двое ребят — Миша и Дуняша. Миша увлекается произведениями Фенимора Купера, а Дуняша зачитывается романом «Овод». Внезапно поселок подвергается нападению банды Махно. Ребята решают сколотить небольшой отряд. К ним присоединяется уличный акробат Том Джаксон. С этого момента начинаются героические приключения трех юных разведчиков, бойцов Первой Конной армии…
    Доп. информация:
    Автор рипа: pmv
    Запись со спутника выполнена Saulius Kintera / Luxembourg /, который предоставил исходник, за что приносим ему Благодарность!
    Большое спасибо за помощь в подготовке релиза - trecioka!
    * В данной раздаче представлен «музыкально-озвученный выпуск фильма, производства Тбилисской киностудии 1923-1943 г.г., выпущенный к ХХ-летию выхода на экраны СССР».
    По видимому, эта версия, выпущенная в годы войны, была специально смонтирована в укороченном варианте (почти на час меньше, чем оригинальная версия) и с музыкальной озвучкой, для демонстрации в военных условиях для бойцов Советской Армии.
    На Рутрекере раздаётся совершенно другая версия фильма по времени на 15 минут больше, чем в данной раздаче, продолжительностью 01:23:38 - http://perectracker.org/viewtopic.php?t=573324.
    * Музыкальное оформление фильма - И. Гокиели; монтажёр и звукооператор - В.Доленко.
    * Исполнитель роли Махно, Владимир Кучеренко, оказался главарём банды, осуществившей множество грабежей в Одесской и Николаевской губерниях, в Крыму и на Кавказе; после ареста осуждён и расстрелян, в связи с этим был вычеркнут из титров всех фильмов, в которых снимался. В титрах «Красных дьяволят» его имя было заменено Владимиром Сутыриным (Информация взята с Википедии, источник - [url=http://rus-history.com/kino.html)]http://rus-history.com/kino.html)[/url]

    IMDb = 6,3/10 from 39 users -
    Кинопоиск = 5.968 (111) -
    ПРОСЬБА к СКАЧАВШИМ. НЕ УХОДИТЕ С РАЗДАЧИ, ПОМОГИТЕ ДРУГИМ СКАЧАТЬ!!!
    Качество видео: SATRip
    Формат видео: AVI
    Видео: 720x544 (1.32:1), 25 fps, XviD build 73 ~2143 kbps avg, 0.22 bit/pixel
    Аудио: 48 kHz, MPEG Layer 3, 2 ch, ~128.00 kbps avg

    MediaInfo

    General
    Complete name : D:\torrents\красные дьяволята (1923-1943+sound).avi
    Format : AVI
    Format/Info : Audio Video Interleave
    File size : 1.09 GiB
    Duration : 1h 8mn
    Overall bit rate : 2 281 Kbps
    Writing library : VirtualDub build 35576/release
    Video
    ID : 0
    Format : MPEG-4 Visual
    Format profile : Advanced Simple@L5
    Format settings, BVOP : 2
    Format settings, QPel : No
    Format settings, GMC : No warppoints
    Format settings, Matrix : Default (H.263)
    Codec ID : XVID
    Codec ID/Hint : XviD
    Duration : 1h 8mn
    Bit rate : 2 143 Kbps
    Width : 720 pixels
    Height : 544 pixels
    Display aspect ratio : 4:3
    Frame rate : 25.000 fps
    Color space : YUV
    Chroma subsampling : 4:2:0
    Bit depth : 8 bits
    Scan type : Progressive
    Compression mode : Lossy
    Bits/(Pixel*Frame) : 0.219
    Stream size : 1.03 GiB (94%)
    Writing library : XviD 73
    Audio
    ID : 1
    Format : MPEG Audio
    Format version : Version 1
    Format profile : Layer 3
    Mode : Joint stereo
    Mode extension : MS Stereo
    Codec ID : 55
    Codec ID/Hint : MP3
    Duration : 1h 8mn
    Bit rate mode : Constant
    Bit rate : 128 Kbps
    Channel(s) : 2 channels
    Sampling rate : 48.0 KHz
    Compression mode : Lossy
    Stream size : 62.7 MiB (6%)
    Alignment : Split accross interleaves
    Interleave, duration : 40 ms (1.00 video frame)
    Interleave, preload duration : 500 ms

    Скриншот c названием фильма

    Скриншоты


    Скачать .torrent

    Скачать торрент-файл бесплатно и на максимальной скорости!

    Как скачивать? · Что такое торрент? · Рейтинг и ограничения

    !ВНИМАНИЕ!
    Сайт не распространяет и не хранит электронные версии произведений, а занимается лишь лишь предоставлением доступа к создаваемому пользователями каталогу ссылок на торрент-файлы, которые содержат только списки хеш-сумм, убедительная просьба с жалобами обращаться напрямую к пользователю. Файлы для обмена на трекере предоставлены пользователями сайта, и администрация не несёт ответственности за их содержание. Просьба не заливать файлы, защищенные авторскими правами, а также файлы нелегального содержания!


    _________________
    [Профиль] [ЛС]
    Показать сообщения:    
    Ответить на тему

    Текущее время: Сегодня, в 20:15

    Часовой пояс: GMT + 2



    Вы не можете начинать темы
    Вы не можете отвечать на сообщения
    Вы не можете редактировать свои сообщения
    Вы не можете удалять свои сообщения
    Вы не можете голосовать в опросах
    Вы не можете прикреплять файлы к сообщениям
    Вы не можете скачивать файлы