Register  ·  Log in
Forgot password?

  • Пограничный пес Алый (Юлий Файт) [1979, Детский, Приключения, DVB]

    Reply to topic
    Author Message


    Post 21-Mar-2015 20:55



    Пограничный пес Алый
    Жанр: Детский, Приключения
    Год выпуска: 1979
    Продолжительность: 01:03:07
    Режиссёр: Юлий Файт
    В ролях: Владимир Дубровский, Виктор Косых, Василий Куприянов, Владимир Герасимов, Нартай Бегалин, Яна Друзь, Александр Казаков, Игорь Косухин, Александр Куренной, Артур Нищенкин, А. Остриков, Н. Рылов, М. Русаков, И. Спирин, Владимир Голованов, Александр Сирин
    Описание: По рассказам Ю. Коваля о воинах-пограничниках. Новобранец Леша Кошкин получил щенка, выучил его в школе собаководства всем премудростям и заступил на службу. Однажды пограничный пес Алый взял след нарушителя...
    Раздача группы:
    Качество видео: DVB
    Формат видео: mpg
    Видео: MPEG2, 704х576 (4:3), 4840 Kbps, 25 fps, Bits/(Pixel*Frame) : 0.477
    Аудио: MP2, 192 Kbps, 2 ch, 48 KHz


    D:\видео\Пограничный Пёс Алый.mpg
    Complete name : D:\видео\Пограничный Пёс Алый.mpg
    Format : MPEG-PS
    File size : 2.25 GiB
    Duration : 1h 3mn
    Overall bit rate mode : Variable
    Overall bit rate : 5 111 Kbps
    Writing library : (c) 1998-2011 Womble Multimedia, Inc. / MPEG Video Wizard DVD (03/2011) / May 27 2011
    Video #224
    ID : 224 (0xE0)
    Format : MPEG Video
    Format version : Version 2
    Format profile : Main@Main
    Format settings, BVOP : Yes
    Format settings, Matrix : Custom
    Format settings, GOP : M=1, N=26
    Duration : 1h 3mn
    Bit rate mode : Variable
    Bit rate : 4 840 Kbps
    Width : 704 pixels
    Height : 576 pixels
    Display aspect ratio : 4:3
    Frame rate : 25.000 fps
    Standard : PAL
    Color space : YUV
    Chroma subsampling : 4:2:0
    Bit depth : 8 bits
    Scan type : Interlaced
    Scan order : Top Field First
    Compression mode : Lossy
    Bits/(Pixel*Frame) : 0.477
    Stream size : 2.12 GiB (94%)
    Writing library : (c) 1998-2011 Womble Multimedia, Inc. / MPEG Video Wizard DVD (03/2011) / May 27 2011
    Audio #192
    ID : 192 (0xC0)
    Format : MPEG Audio
    Format version : Version 1
    Format profile : Layer 2
    Duration : 1h 3mn
    Bit rate mode : Constant
    Bit rate : 192 Kbps
    Channel(s) : 2 channels
    Sampling rate : 48.0 KHz
    Compression mode : Lossy
    Stream size : 86.7 MiB (4%)


    Download .torrent

    Download free and at maximum speed!

    How to Download? · What is a torrent? · Ratings and Limitations

    The site does not extend and does not store electronic(digital) versions of products, and only gives access to a reference catalogue created by users on torrent-files which contain only lists of the hash-sums, the earnest entreaty, with complaints(abuse) to access directly to the user. Files for an exchange on tracker are given by users of a site, and the administration does not bear the responsibility for their maintenance. The request to not fill in the files protected by copyrights, and also files of the illegal maintenance!

    [Profile] [PM]
    Display posts from previous:    
    Reply to topic

    The time now is: Today 14:16

    All times are GMT + 3 Hours

    You cannot post new topics in this forum
    You cannot reply to topics in this forum
    You cannot edit your posts in this forum
    You cannot delete your posts in this forum
    You cannot vote in polls in this forum
    You cannot attach files in this forum
    You cannot download files in this forum