BitTorrentTracker PerecTracker.org
BitTorrentTracker PerecTracker.org
    
Регистрация  ·  Вход
 
 · 
Забыли пароль?

  • Пограничный пес Алый (Юлий Файт) [1979, Детский, Приключения, DVB]

    Ответить на тему
     
    Автор Сообщение

    Light

    Создавать темы 21-Мар-2015 19:55

           

    [Цитировать]

    Пограничный пес Алый
    Жанр: Детский, Приключения
    Год выпуска: 1979
    Продолжительность: 01:03:07
    Режиссёр: Юлий Файт
    В ролях: Владимир Дубровский, Виктор Косых, Василий Куприянов, Владимир Герасимов, Нартай Бегалин, Яна Друзь, Александр Казаков, Игорь Косухин, Александр Куренной, Артур Нищенкин, А. Остриков, Н. Рылов, М. Русаков, И. Спирин, Владимир Голованов, Александр Сирин
    Описание: По рассказам Ю. Коваля о воинах-пограничниках. Новобранец Леша Кошкин получил щенка, выучил его в школе собаководства всем премудростям и заступил на службу. Однажды пограничный пес Алый взял след нарушителя...
    Раздача группы:
    Сэмпл
    Качество видео: DVB
    Формат видео: mpg
    Видео: MPEG2, 704х576 (4:3), 4840 Kbps, 25 fps, Bits/(Pixel*Frame) : 0.477
    Аудио: MP2, 192 Kbps, 2 ch, 48 KHz

    MediaInfo

    D:\видео\Пограничный Пёс Алый.mpg
    General
    Complete name : D:\видео\Пограничный Пёс Алый.mpg
    Format : MPEG-PS
    File size : 2.25 GiB
    Duration : 1h 3mn
    Overall bit rate mode : Variable
    Overall bit rate : 5 111 Kbps
    Writing library : (c) 1998-2011 Womble Multimedia, Inc. / MPEG Video Wizard DVD 5.0.1.100 (03/2011) / May 27 2011
    Video #224
    ID : 224 (0xE0)
    Format : MPEG Video
    Format version : Version 2
    Format profile : Main@Main
    Format settings, BVOP : Yes
    Format settings, Matrix : Custom
    Format settings, GOP : M=1, N=26
    Duration : 1h 3mn
    Bit rate mode : Variable
    Bit rate : 4 840 Kbps
    Width : 704 pixels
    Height : 576 pixels
    Display aspect ratio : 4:3
    Frame rate : 25.000 fps
    Standard : PAL
    Color space : YUV
    Chroma subsampling : 4:2:0
    Bit depth : 8 bits
    Scan type : Interlaced
    Scan order : Top Field First
    Compression mode : Lossy
    Bits/(Pixel*Frame) : 0.477
    Stream size : 2.12 GiB (94%)
    Writing library : (c) 1998-2011 Womble Multimedia, Inc. / MPEG Video Wizard DVD 5.0.1.100 (03/2011) / May 27 2011
    Audio #192
    ID : 192 (0xC0)
    Format : MPEG Audio
    Format version : Version 1
    Format profile : Layer 2
    Duration : 1h 3mn
    Bit rate mode : Constant
    Bit rate : 192 Kbps
    Channel(s) : 2 channels
    Sampling rate : 48.0 KHz
    Compression mode : Lossy
    Stream size : 86.7 MiB (4%)

    Скриншоты

    Скачать .torrent

    Скачать торрент-файл бесплатно и на максимальной скорости!

    Как скачивать? · Что такое торрент? · Рейтинг и ограничения

    !ВНИМАНИЕ!
    Сайт не распространяет и не хранит электронные версии произведений, а занимается лишь лишь предоставлением доступа к создаваемому пользователями каталогу ссылок на торрент-файлы, которые содержат только списки хеш-сумм, убедительная просьба с жалобами обращаться напрямую к пользователю. Файлы для обмена на трекере предоставлены пользователями сайта, и администрация не несёт ответственности за их содержание. Просьба не заливать файлы, защищенные авторскими правами, а также файлы нелегального содержания!


    _________________
    [Профиль] [ЛС]
    Показать сообщения:    
    Ответить на тему

    Текущее время: Сегодня, в 02:58

    Часовой пояс: GMT + 2



    Вы не можете начинать темы
    Вы не можете отвечать на сообщения
    Вы не можете редактировать свои сообщения
    Вы не можете удалять свои сообщения
    Вы не можете голосовать в опросах
    Вы не можете прикреплять файлы к сообщениям
    Вы не можете скачивать файлы