BitTorrentTracker PerecTracker.org
BitTorrentTracker PerecTracker.org
    
Регистрация  ·  Вход
 
 · 
Забыли пароль?

  • В поисках капитана Гранта (Станислав Говорухин) [1985, приключения, DVDRip-AVC]

    Ответить на тему
     
    Автор Сообщение

    Light

    Создавать темы 21-Мар-2015 19:55

           

    [Цитировать]

    В поисках капитана Гранта (7 серий)-Жанр: приключения
    Год выпуска: 1985
    Продолжительность: 07:38:20
    01:04:39 + 01:04:30 + 01:03:43 + 01:03:25 +01:03:44 + 01:05:10 + 01:13:09-Режиссёр: Станислав Говорухин-В ролях:
    Николай Еременко, Тамара Акулова, Лембит Ульфсак, Владимир Гостюхин, Олег Штефанко, Анатолий Рудаков, Руслан Курашов, Галина Струтинская, Александр Абдулов, Борис Хмельницкий, Владимир Смирнов, Марина Влади, Федор Одиноков, Джордже Росич, Явор Милушев, Анна Пенчева, Рудольф Мухин, Марин Янев, Пьер Оссейн, Петр Слабаков, Лычезар Стоянов, Владимир Жариков, Коста Цонев
    Описание:
    По роману Жюля Верна "Дети капитана Гранта". Капитан Грант пустился в опасное плавание, чтобы основать вольное шотландское поселение на островах Тихого океана. Его корабль терпит крушение и лишь полуразмытая записка в бутылке доносит обрывочные сведения о Гранте. Лорд Гленарван на свой страх и риск отправляется на поиски, взяв с собой детей капитана - Мэри и Роберта. Путь отважных путешественников лежит через острова Атлантики, горы и пампасы Новой Зеландии и Австралии, просторы Тихого океана, где их поджидают всевозможные приключения.-Исходник | Сэмпл | Кинопоиск-Качество видео: DVDRip-AVC, благодарю AbroadGirl за материал.
    Формат видео: MKV
    Видео: x264 (High@L4.1); 712@759x576, Display aspect ratio 1.318:1, 25.000 fps, 2302-2500 Kbps
    Аудио: Оригинал: AC-3; 16 bits 48 Khz; 5.1 ch 448 Kbps; CBR
    MediaInfo
    1 серия

    -

    x264 log

    avs [info]: 712x576p 16:15 @ 25/1 fps (cfr)
    x264 [info]: using SAR=16/15
    x264 [info]: using cpu capabilities: MMX2 SSE2Fast SSSE3 SSE4.2
    x264 [info]: profile High, level 4.1
    x264 [info]: frame I:556 Avg QP:20.99 size: 53265
    x264 [info]: frame P:19679 Avg QP:22.14 size: 25050
    x264 [info]: frame B:76755 Avg QP:24.02 size: 8662
    x264 [info]: consecutive B-frames: 1.1% 1.4% 7.3% 15.8% 13.9% 55.1% 3.5% 0.9% 0.8% 0.2%
    x264 [info]: mb I I16..4: 3.3% 84.5% 12.2%
    x264 [info]: mb P I16..4: 0.1% 9.8% 0.6% P16..4: 33.1% 39.8% 15.0% 1.3% 0.1% skip: 0.3%
    x264 [info]: mb B I16..4: 0.0% 0.9% 0.0% B16..8: 44.2% 25.6% 4.6% direct: 6.8% skip:17.9% L0:39.7% L1:43.4% BI:16.9%
    x264 [info]: 8x8 transform intra:92.6% inter:66.9%
    x264 [info]: coded y,uvDC,uvAC intra: 98.2% 66.6% 24.3% inter: 38.0% 21.9% 0.5%
    x264 [info]: i16 v,h,dc,p: 15% 17% 18% 51%
    x264 [info]: i8 v,h,dc,ddl,ddr,vr,hd,vl,hu: 8% 11% 8% 10% 13% 12% 13% 12% 13%
    x264 [info]: i4 v,h,dc,ddl,ddr,vr,hd,vl,hu: 10% 10% 2% 8% 15% 16% 15% 12% 12%
    x264 [info]: i8c dc,h,v,p: 29% 34% 22% 15%
    x264 [info]: Weighted P-Frames: Y:28.5% UV:9.8%
    x264 [info]: ref P L0: 37.1% 12.9% 16.1% 6.9% 5.5% 4.1% 3.7% 2.1% 2.0% 1.7% 1.7% 1.4% 1.4% 1.2% 1.3% 0.9%
    x264 [info]: ref B L0: 76.1% 9.1% 3.8% 2.3% 1.7% 1.5% 1.2% 0.8% 0.7% 0.7% 0.6% 0.6% 0.5% 0.3% 0.2%
    x264 [info]: ref B L1: 95.0% 5.0%
    x264 [info]: kb/s:2448.56
    x264 [total]: encoded 96990 frames, 9.41 fps, 2448.56 kb/s
    -General
    Unique ID : 192961668412804204737354935625296604696 (0x912B10C6AC5D97F1BE4649106A536E18)
    Complete name : В поисках капитана Гранта.1985.1 серия.mkv
    Format : Matroska
    Format version : Version 2
    File size : 1.31 GiB
    Duration : 1h 4mn
    Overall bit rate : 2 898 Kbps
    Movie name : «В поисках капитана Гранта»
    Encoded date : UTC 2015-01-07 16:23:53
    Writing application : mkvmerge v5.8.0 ('No Sleep / Pillow') built on Sep 2 2012 15:37:04
    Writing library : libebml v1.2.3 + libmatroska v1.3.0
    Comment : DVDRip-AVC
    Originally released : January 7th 2015
    Encoded by : george$t®
    Video
    ID : 1
    Format : AVC
    Format/Info : Advanced Video Codec
    Format profile : High@L4.1
    Format settings, CABAC : Yes
    Format settings, ReFrames : 16 frames
    Codec ID : V_MPEG4/ISO/AVC
    Duration : 1h 4mn
    Bit rate : 2 393 Kbps
    Width : 712 pixels
    Height : 576 pixels
    Display aspect ratio : 4:3
    Original display aspect ratio : 4:3
    Frame rate mode : Constant
    Frame rate : 25.000 fps
    Color space : YUV
    Chroma subsampling : 4:2:0
    Bit depth : 8 bits
    Scan type : Progressive
    Bits/(Pixel*Frame) : 0.233
    Stream size : 1.08 GiB (83%)
    Title : В поисках капитана Гранта.1985.1 серия
    Writing library : x264 core 130 r2273 b3065e6
    Encoding settings : cabac=1 / ref=16 / deblock=1:-2:-1 / analyse=0x3:0x133 / me=umh / subme=11 / psy=1 / psy_rd=1.03:0.10 / mixed_ref=1 / me_range=48 / chroma_me=1 / trellis=2 / 8x8dct=1 / cqm=0 / deadzone=21,11 / fast_pskip=1 / chroma_qp_offset=-3 / threads=12 / lookahead_threads=2 / sliced_threads=0 / nr=0 / decimate=1 / interlaced=0 / bluray_compat=0 / constrained_intra=0 / bframes=9 / b_pyramid=2 / b_adapt=2 / b_bias=0 / direct=1 / weightb=1 / open_gop=0 / weightp=2 / keyint=250 / keyint_min=25 / scenecut=40 / intra_refresh=0 / rc=crf / mbtree=0 / crf=19.3 / qcomp=0.65 / qpmin=0 / qpmax=32 / qpstep=4 / ip_ratio=1.30 / pb_ratio=1.25 / aq=1:0.70
    Language : Russian
    Default : Yes
    Forced : No
    Color primaries : BT.601 PAL
    Transfer characteristics : BT.470 System B, BT.470 System G
    Matrix coefficients : BT.601
    Audio
    ID : 2
    Format : AC-3
    Format/Info : Audio Coding 3
    Mode extension : CM (complete main)
    Format settings, Endianness : Big
    Codec ID : A_AC3
    Duration : 1h 4mn
    Bit rate mode : Constant
    Bit rate : 448 Kbps
    Channel(s) : 6 channels
    Channel positions : Front: L C R, Side: L R, LFE
    Sampling rate : 48.0 KHz
    Bit depth : 16 bits
    Compression mode : Lossy
    Stream size : 207 MiB (15%)
    Title : Оригинал: AC-3; 16 bits 48 Khz; 5.1 ch 448 Kbps; CBR
    Language : Russian
    Default : Yes
    Forced : No
    2 серия

    -

    x264 log

    avs [info]: 712x576p 16:15 @ 25/1 fps (cfr)
    x264 [info]: using SAR=16/15
    x264 [info]: using cpu capabilities: MMX2 SSE2Fast SSSE3 SSE4.2
    x264 [info]: profile High, level 4.1
    x264 [info]: frame I:527 Avg QP:21.96 size: 50425
    x264 [info]: frame P:21417 Avg QP:23.34 size: 24397
    x264 [info]: frame B:74809 Avg QP:25.04 size: 8834
    x264 [info]: consecutive B-frames: 1.7% 1.7% 17.2% 11.4% 9.3% 55.7% 2.0% 0.4% 0.4% 0.1%
    x264 [info]: mb I I16..4: 6.4% 81.2% 12.4%
    x264 [info]: mb P I16..4: 0.7% 12.6% 0.7% P16..4: 35.3% 34.9% 12.6% 1.4% 0.1% skip: 1.7%
    x264 [info]: mb B I16..4: 0.1% 2.1% 0.1% B16..8: 41.8% 23.6% 3.6% direct: 6.2% skip:22.6% L0:35.0% L1:41.7% BI:23.3%
    x264 [info]: 8x8 transform intra:90.2% inter:69.7%
    x264 [info]: coded y,uvDC,uvAC intra: 91.5% 69.2% 27.2% inter: 31.1% 19.6% 0.8%
    x264 [info]: i16 v,h,dc,p: 24% 20% 15% 42%
    x264 [info]: i8 v,h,dc,ddl,ddr,vr,hd,vl,hu: 9% 11% 8% 9% 12% 13% 11% 13% 14%
    x264 [info]: i4 v,h,dc,ddl,ddr,vr,hd,vl,hu: 11% 8% 4% 9% 15% 16% 13% 12% 12%
    x264 [info]: i8c dc,h,v,p: 28% 33% 23% 16%
    x264 [info]: Weighted P-Frames: Y:23.6% UV:10.0%
    x264 [info]: ref P L0: 43.8% 13.7% 15.9% 5.6% 4.5% 3.2% 3.0% 1.6% 1.6% 1.3% 1.3% 1.1% 1.1% 0.9% 1.0% 0.7%
    x264 [info]: ref B L0: 84.7% 7.1% 2.3% 1.3% 1.0% 0.8% 0.6% 0.4% 0.4% 0.3% 0.3% 0.3% 0.3% 0.2% 0.1%
    x264 [info]: ref B L1: 95.9% 4.1%
    x264 [info]: kb/s:2500.06
    x264 [total]: encoded 96753 frames, 9.88 fps, 2500.06 kb/s
    -General
    Unique ID : 226282297313456758865970993865878761814 (0xAA3C629E4E937D89AE9E12573D6D7156)
    Complete name : В поисках капитана Гранта.1985.2 серия.mkv
    Format : Matroska
    Format version : Version 2
    File size : 1.33 GiB
    Duration : 1h 4mn
    Overall bit rate : 2 951 Kbps
    Movie name : «В поисках капитана Гранта»
    Encoded date : UTC 2015-01-08 16:42:35
    Writing application : mkvmerge v5.8.0 ('No Sleep / Pillow') built on Sep 2 2012 15:37:04
    Writing library : libebml v1.2.3 + libmatroska v1.3.0
    Comment : DVDRip-AVC
    Originally released : January 8th 2015
    Encoded by : george$t®
    Video
    ID : 1
    Format : AVC
    Format/Info : Advanced Video Codec
    Format profile : High@L4.1
    Format settings, CABAC : Yes
    Format settings, ReFrames : 16 frames
    Codec ID : V_MPEG4/ISO/AVC
    Duration : 1h 4mn
    Bit rate : 2 444 Kbps
    Width : 712 pixels
    Height : 576 pixels
    Display aspect ratio : 4:3
    Original display aspect ratio : 4:3
    Frame rate mode : Constant
    Frame rate : 25.000 fps
    Color space : YUV
    Chroma subsampling : 4:2:0
    Bit depth : 8 bits
    Scan type : Progressive
    Bits/(Pixel*Frame) : 0.238
    Stream size : 1.10 GiB (83%)
    Title : В поисках капитана Гранта.1985.2 серия
    Writing library : x264 core 130 r2273 b3065e6
    Encoding settings : cabac=1 / ref=16 / deblock=1:-1:0 / analyse=0x3:0x133 / me=umh / subme=11 / psy=1 / psy_rd=0.85:0.15 / mixed_ref=1 / me_range=48 / chroma_me=1 / trellis=2 / 8x8dct=1 / cqm=0 / deadzone=21,11 / fast_pskip=1 / chroma_qp_offset=-3 / threads=12 / lookahead_threads=2 / sliced_threads=0 / nr=0 / decimate=1 / interlaced=0 / bluray_compat=0 / constrained_intra=0 / bframes=9 / b_pyramid=2 / b_adapt=2 / b_bias=0 / direct=1 / weightb=1 / open_gop=0 / weightp=2 / keyint=250 / keyint_min=25 / scenecut=40 / intra_refresh=0 / rc=crf / mbtree=0 / crf=19.9 / qcomp=0.65 / qpmin=0 / qpmax=32 / qpstep=4 / ip_ratio=1.30 / pb_ratio=1.25 / aq=1:0.90
    Language : Russian
    Default : Yes
    Forced : No
    Color primaries : BT.601 PAL
    Transfer characteristics : BT.470 System B, BT.470 System G
    Matrix coefficients : BT.601
    Audio
    ID : 2
    Format : AC-3
    Format/Info : Audio Coding 3
    Mode extension : CM (complete main)
    Format settings, Endianness : Big
    Codec ID : A_AC3
    Duration : 1h 4mn
    Bit rate mode : Constant
    Bit rate : 448 Kbps
    Channel(s) : 6 channels
    Channel positions : Front: L C R, Side: L R, LFE
    Sampling rate : 48.0 KHz
    Bit depth : 16 bits
    Compression mode : Lossy
    Stream size : 207 MiB (15%)
    Title : Оригинал: AC-3; 16 bits 48 Khz; 5.1 ch 448 Kbps; CBR
    Language : Russian
    Default : Yes
    Forced : No
    3 серия

    -

    x264 log

    avs [info]: 712x576p 16:15 @ 25/1 fps (cfr)
    x264 [info]: using SAR=16/15
    x264 [info]: using cpu capabilities: MMX2 SSE2Fast SSSE3 SSE4.2
    x264 [info]: profile High, level 4.1
    x264 [info]: frame I:560 Avg QP:20.87 size: 53746
    x264 [info]: frame P:21459 Avg QP:22.06 size: 23651
    x264 [info]: frame B:73564 Avg QP:23.74 size: 7650
    x264 [info]: consecutive B-frames: 2.5% 3.3% 9.8% 15.8% 12.8% 51.1% 3.1% 0.9% 0.5% 0.2%
    x264 [info]: mb I I16..4: 1.8% 88.0% 10.2%
    x264 [info]: mb P I16..4: 0.1% 8.2% 0.5% P16..4: 34.2% 39.6% 15.5% 1.4% 0.1% skip: 0.3%
    x264 [info]: mb B I16..4: 0.0% 0.7% 0.0% B16..8: 41.1% 26.1% 4.7% direct: 6.4% skip:21.0% L0:37.7% L1:44.2% BI:18.1%
    x264 [info]: 8x8 transform intra:92.2% inter:67.0%
    x264 [info]: coded y,uvDC,uvAC intra: 97.8% 73.7% 31.8% inter: 37.1% 21.2% 0.6%
    x264 [info]: i16 v,h,dc,p: 11% 22% 10% 56%
    x264 [info]: i8 v,h,dc,ddl,ddr,vr,hd,vl,hu: 7% 11% 6% 10% 14% 13% 14% 12% 13%
    x264 [info]: i4 v,h,dc,ddl,ddr,vr,hd,vl,hu: 7% 10% 2% 8% 16% 16% 16% 12% 13%
    x264 [info]: i8c dc,h,v,p: 33% 30% 21% 16%
    x264 [info]: Weighted P-Frames: Y:25.3% UV:8.7%
    x264 [info]: ref P L0: 42.5% 16.6% 15.4% 5.5% 4.2% 3.1% 2.8% 1.5% 1.5% 1.2% 1.2% 1.0% 1.0% 0.9% 0.9% 0.6%
    x264 [info]: ref B L0: 80.2% 8.2% 3.0% 1.8% 1.3% 1.2% 0.9% 0.6% 0.5% 0.5% 0.4% 0.4% 0.4% 0.3% 0.1%
    x264 [info]: ref B L1: 96.0% 4.0%
    x264 [info]: kb/s:2302.50
    x264 [total]: encoded 95583 frames, 9.78 fps, 2302.50 kb/s
    -General
    Unique ID : 220299167843937209686644029170658035932 (0xA5BC138F6FD63CF8835C15A3A5A7C8DC)
    Complete name : В поисках капитана Гранта.1985.3 серия.mkv
    Format : Matroska
    Format version : Version 2
    File size : 1.23 GiB
    Duration : 1h 3mn
    Overall bit rate : 2 752 Kbps
    Movie name : «В поисках капитана Гранта»
    Encoded date : UTC 2015-01-08 21:06:33
    Writing application : mkvmerge v5.8.0 ('No Sleep / Pillow') built on Sep 2 2012 15:37:04
    Writing library : libebml v1.2.3 + libmatroska v1.3.0
    Comment : DVDRip-AVC
    Originally released : January 8th 2015
    Encoded by : george$t®
    Video
    ID : 1
    Format : AVC
    Format/Info : Advanced Video Codec
    Format profile : High@L4.1
    Format settings, CABAC : Yes
    Format settings, ReFrames : 16 frames
    Codec ID : V_MPEG4/ISO/AVC
    Duration : 1h 3mn
    Bit rate : 2 249 Kbps
    Width : 712 pixels
    Height : 576 pixels
    Display aspect ratio : 4:3
    Original display aspect ratio : 4:3
    Frame rate mode : Constant
    Frame rate : 25.000 fps
    Color space : YUV
    Chroma subsampling : 4:2:0
    Bit depth : 8 bits
    Scan type : Progressive
    Bits/(Pixel*Frame) : 0.219
    Stream size : 1.00 GiB (82%)
    Title : В поисках капитана Гранта.1985.3 серия
    Writing library : x264 core 130 r2273 b3065e6
    Encoding settings : cabac=1 / ref=16 / deblock=1:-1:-1 / analyse=0x3:0x133 / me=umh / subme=11 / psy=1 / psy_rd=1.00:0.05 / mixed_ref=1 / me_range=48 / chroma_me=1 / trellis=2 / 8x8dct=1 / cqm=0 / deadzone=21,11 / fast_pskip=1 / chroma_qp_offset=-3 / threads=12 / lookahead_threads=2 / sliced_threads=0 / nr=0 / decimate=1 / interlaced=0 / bluray_compat=0 / constrained_intra=0 / bframes=9 / b_pyramid=2 / b_adapt=2 / b_bias=0 / direct=1 / weightb=1 / open_gop=0 / weightp=2 / keyint=250 / keyint_min=25 / scenecut=40 / intra_refresh=0 / rc=crf / mbtree=0 / crf=19.1 / qcomp=0.65 / qpmin=0 / qpmax=32 / qpstep=4 / ip_ratio=1.30 / pb_ratio=1.25 / aq=1:0.80
    Language : Russian
    Default : Yes
    Forced : No
    Color primaries : BT.601 PAL
    Transfer characteristics : BT.470 System B, BT.470 System G
    Matrix coefficients : BT.601
    Audio
    ID : 2
    Format : AC-3
    Format/Info : Audio Coding 3
    Mode extension : CM (complete main)
    Format settings, Endianness : Big
    Codec ID : A_AC3
    Duration : 1h 3mn
    Bit rate mode : Constant
    Bit rate : 448 Kbps
    Channel(s) : 6 channels
    Channel positions : Front: L C R, Side: L R, LFE
    Sampling rate : 48.0 KHz
    Bit depth : 16 bits
    Compression mode : Lossy
    Stream size : 204 MiB (16%)
    Title : Оригинал: AC-3; 16 bits 48 Khz; 5.1 ch 448 Kbps; CBR
    Language : Russian
    Default : Yes
    Forced : No
    4 серия

    -

    x264 log

    avs [info]: 712x576p 16:15 @ 25/1 fps (cfr)
    x264 [info]: using SAR=16/15
    x264 [info]: using cpu capabilities: MMX2 SSE2Fast SSSE3 SSE4.2
    x264 [info]: profile High, level 4.1
    x264 [info]: frame I:504 Avg QP:21.97 size: 54158
    x264 [info]: frame P:21961 Avg QP:23.10 size: 23481
    x264 [info]: frame B:72671 Avg QP:24.67 size: 8493
    x264 [info]: consecutive B-frames: 2.7% 3.5% 9.2% 20.7% 14.5% 44.0% 3.1% 0.8% 1.0% 0.2% 0.1% 0.1%
    x264 [info]: mb I I16..4: 3.7% 87.6% 8.8%
    x264 [info]: mb P I16..4: 0.1% 11.7% 0.7% P16..4: 33.3% 37.3% 14.7% 1.5% 0.1% skip: 0.6%
    x264 [info]: mb B I16..4: 0.0% 1.6% 0.1% B16..8: 40.4% 25.4% 5.0% direct: 6.5% skip:21.0% L0:39.3% L1:45.0% BI:15.7%
    x264 [info]: 8x8 transform intra:93.4% inter:67.4%
    x264 [info]: coded y,uvDC,uvAC intra: 97.8% 60.7% 16.8% inter: 37.7% 19.1% 0.2%
    x264 [info]: i16 v,h,dc,p: 9% 21% 24% 46%
    x264 [info]: i8 v,h,dc,ddl,ddr,vr,hd,vl,hu: 7% 10% 8% 10% 14% 13% 13% 12% 13%
    x264 [info]: i4 v,h,dc,ddl,ddr,vr,hd,vl,hu: 7% 10% 2% 8% 16% 17% 16% 12% 13%
    x264 [info]: i8c dc,h,v,p: 32% 34% 20% 14%
    x264 [info]: Weighted P-Frames: Y:26.7% UV:10.8%
    x264 [info]: ref P L0: 42.1% 16.0% 15.4% 5.9% 4.4% 3.3% 2.9% 1.6% 1.5% 1.3% 1.2% 1.0% 1.0% 0.9% 0.9% 0.6%
    x264 [info]: ref B L0: 76.7% 8.6% 3.7% 2.2% 1.7% 1.5% 1.2% 0.8% 0.7% 0.7% 0.6% 0.6% 0.5% 0.3% 0.1%
    x264 [info]: ref B L1: 95.5% 4.5%
    x264 [info]: kb/s:2438.93
    x264 [total]: encoded 95136 frames, 9.18 fps, 2438.93 kb/s
    -General
    Unique ID : 189880252762746991253655352200586861013 (0x8ED99B413F8CC81E85BAFD68A3F419D5)
    Complete name : В поисках капитана Гранта.1985.4 серия.mkv
    Format : Matroska
    Format version : Version 2
    File size : 1.28 GiB
    Duration : 1h 3mn
    Overall bit rate : 2 889 Kbps
    Movie name : «В поисках капитана Гранта»
    Encoded date : UTC 2015-01-10 09:17:05
    Writing application : mkvmerge v5.8.0 ('No Sleep / Pillow') built on Sep 2 2012 15:37:04
    Writing library : libebml v1.2.3 + libmatroska v1.3.0
    Comment : DVDRip-AVC
    Originally released : January 9th 2015
    Encoded by : george$t®
    Video
    ID : 1
    Format : AVC
    Format/Info : Advanced Video Codec
    Format profile : High@L4.1
    Format settings, CABAC : Yes
    Format settings, ReFrames : 16 frames
    Codec ID : V_MPEG4/ISO/AVC
    Duration : 1h 3mn
    Bit rate : 2 383 Kbps
    Width : 712 pixels
    Height : 576 pixels
    Display aspect ratio : 4:3
    Original display aspect ratio : 4:3
    Frame rate mode : Constant
    Frame rate : 25.000 fps
    Color space : YUV
    Chroma subsampling : 4:2:0
    Bit depth : 8 bits
    Scan type : Progressive
    Bits/(Pixel*Frame) : 0.232
    Stream size : 1.06 GiB (83%)
    Title : В поисках капитана Гранта.1985.4 серия
    Writing library : x264 core 130 r2273 b3065e6
    Encoding settings : cabac=1 / ref=16 / deblock=1:-1:-1 / analyse=0x3:0x133 / me=umh / subme=11 / psy=1 / psy_rd=1.00:0.10 / mixed_ref=1 / me_range=48 / chroma_me=1 / trellis=2 / 8x8dct=1 / cqm=0 / deadzone=21,11 / fast_pskip=1 / chroma_qp_offset=-3 / threads=12 / lookahead_threads=3 / sliced_threads=0 / nr=0 / decimate=1 / interlaced=0 / bluray_compat=0 / constrained_intra=0 / bframes=11 / b_pyramid=2 / b_adapt=2 / b_bias=0 / direct=1 / weightb=1 / open_gop=0 / weightp=2 / keyint=250 / keyint_min=25 / scenecut=40 / intra_refresh=0 / rc=crf / mbtree=0 / crf=20.0 / qcomp=0.65 / qpmin=0 / qpmax=32 / qpstep=4 / ip_ratio=1.30 / pb_ratio=1.25 / aq=1:0.90
    Language : Russian
    Default : Yes
    Forced : No
    Color primaries : BT.601 PAL
    Transfer characteristics : BT.470 System B, BT.470 System G
    Matrix coefficients : BT.601
    Audio
    ID : 2
    Format : AC-3
    Format/Info : Audio Coding 3
    Mode extension : CM (complete main)
    Format settings, Endianness : Big
    Codec ID : A_AC3
    Duration : 1h 3mn
    Bit rate mode : Constant
    Bit rate : 448 Kbps
    Channel(s) : 6 channels
    Channel positions : Front: L C R, Side: L R, LFE
    Sampling rate : 48.0 KHz
    Bit depth : 16 bits
    Compression mode : Lossy
    Stream size : 203 MiB (16%)
    Title : Оригинал: AC-3; 16 bits 48 Khz; 5.1 ch 448 Kbps; CBR
    Language : Russian
    Default : Yes
    Forced : No
    5 серия

    -

    x264 log

    avs [info]: 712x576p 16:15 @ 25/1 fps (cfr)
    x264 [info]: using SAR=16/15
    x264 [info]: using cpu capabilities: MMX2 SSE2Fast SSSE3 SSE4.2
    x264 [info]: profile High, level 4.1
    x264 [info]: frame I:513 Avg QP:21.16 size: 54818
    x264 [info]: frame P:19651 Avg QP:22.28 size: 24952
    x264 [info]: frame B:75455 Avg QP:24.09 size: 8485
    x264 [info]: consecutive B-frames: 1.2% 1.5% 5.8% 19.1% 16.8% 49.3% 4.1% 1.1% 0.8% 0.2% 0.1% 0.1%
    x264 [info]: mb I I16..4: 4.2% 84.6% 11.3%
    x264 [info]: mb P I16..4: 0.1% 10.0% 0.7% P16..4: 33.0% 39.3% 15.0% 1.4% 0.1% skip: 0.4%
    x264 [info]: mb B I16..4: 0.0% 1.0% 0.0% B16..8: 41.9% 25.0% 4.7% direct: 6.8% skip:20.5% L0:39.2% L1:44.8% BI:16.0%
    x264 [info]: 8x8 transform intra:92.2% inter:65.2%
    x264 [info]: coded y,uvDC,uvAC intra: 98.3% 62.6% 23.7% inter: 36.3% 18.5% 0.4%
    x264 [info]: i16 v,h,dc,p: 12% 19% 27% 42%
    x264 [info]: i8 v,h,dc,ddl,ddr,vr,hd,vl,hu: 8% 10% 9% 10% 13% 13% 13% 12% 12%
    x264 [info]: i4 v,h,dc,ddl,ddr,vr,hd,vl,hu: 9% 9% 2% 8% 16% 17% 14% 13% 12%
    x264 [info]: i8c dc,h,v,p: 33% 33% 21% 13%
    x264 [info]: Weighted P-Frames: Y:23.2% UV:7.4%
    x264 [info]: ref P L0: 38.5% 13.7% 16.1% 6.5% 5.3% 3.9% 3.5% 1.9% 1.9% 1.6% 1.5% 1.3% 1.3% 1.1% 1.2% 0.8%
    x264 [info]: ref B L0: 77.5% 8.9% 3.6% 2.1% 1.5% 1.4% 1.1% 0.7% 0.6% 0.6% 0.5% 0.5% 0.4% 0.3% 0.1%
    x264 [info]: ref B L1: 95.3% 4.7%
    x264 [info]: kb/s:2423.56
    x264 [total]: encoded 95619 frames, 9.38 fps, 2423.56 kb/s
    -General
    Unique ID : 213674024301537410666684587934100277317 (0xA0C01EC3B9403C9ABC01C00EDCF8C845)
    Complete name : В поисках капитана Гранта.1985.5 серия.mkv
    Format : Matroska
    Format version : Version 2
    File size : 1.28 GiB
    Duration : 1h 3mn
    Overall bit rate : 2 873 Kbps
    Movie name : «В поисках капитана Гранта»
    Encoded date : UTC 2015-01-10 14:11:37
    Writing application : mkvmerge v5.8.0 ('No Sleep / Pillow') built on Sep 2 2012 15:37:04
    Writing library : libebml v1.2.3 + libmatroska v1.3.0
    Comment : DVDRip-AVC
    Originally released : January 10th 2015
    Encoded by : george$t®
    Video
    ID : 1
    Format : AVC
    Format/Info : Advanced Video Codec
    Format profile : High@L4.1
    Format settings, CABAC : Yes
    Format settings, ReFrames : 16 frames
    Codec ID : V_MPEG4/ISO/AVC
    Duration : 1h 3mn
    Bit rate : 2 368 Kbps
    Width : 712 pixels
    Height : 576 pixels
    Display aspect ratio : 4:3
    Original display aspect ratio : 4:3
    Frame rate mode : Constant
    Frame rate : 25.000 fps
    Color space : YUV
    Chroma subsampling : 4:2:0
    Bit depth : 8 bits
    Scan type : Progressive
    Bits/(Pixel*Frame) : 0.231
    Stream size : 1.05 GiB (82%)
    Title : В поисках капитана Гранта.1985.5 серия
    Writing library : x264 core 130 r2273 b3065e6
    Encoding settings : cabac=1 / ref=16 / deblock=1:-1:-1 / analyse=0x3:0x133 / me=umh / subme=11 / psy=1 / psy_rd=1.03:0.10 / mixed_ref=1 / me_range=48 / chroma_me=1 / trellis=2 / 8x8dct=1 / cqm=0 / deadzone=21,11 / fast_pskip=1 / chroma_qp_offset=-3 / threads=12 / lookahead_threads=3 / sliced_threads=0 / nr=0 / decimate=1 / interlaced=0 / bluray_compat=0 / constrained_intra=0 / bframes=11 / b_pyramid=2 / b_adapt=2 / b_bias=0 / direct=1 / weightb=1 / open_gop=0 / weightp=2 / keyint=250 / keyint_min=25 / scenecut=40 / intra_refresh=0 / rc_lookahead=40 / rc=crf / mbtree=0 / crf=19.3 / qcomp=0.65 / qpmin=0 / qpmax=32 / qpstep=4 / vbv_maxrate=50000 / vbv_bufsize=62500 / crf_max=0.0 / nal_hrd=none / ip_ratio=1.30 / pb_ratio=1.25 / aq=1:0.70
    Language : Russian
    Default : Yes
    Forced : No
    Color primaries : BT.601 PAL
    Transfer characteristics : BT.470 System B, BT.470 System G
    Matrix coefficients : BT.601
    Audio
    ID : 2
    Format : AC-3
    Format/Info : Audio Coding 3
    Mode extension : CM (complete main)
    Format settings, Endianness : Big
    Codec ID : A_AC3
    Duration : 1h 3mn
    Bit rate mode : Constant
    Bit rate : 448 Kbps
    Channel(s) : 6 channels
    Channel positions : Front: L C R, Side: L R, LFE
    Sampling rate : 48.0 KHz
    Bit depth : 16 bits
    Compression mode : Lossy
    Stream size : 204 MiB (16%)
    Title : Оригинал: AC-3; 16 bits 48 Khz; 5.1 ch 448 Kbps; CBR
    Language : Russian
    Default : Yes
    Forced : No
    6 серия

    -

    x264 log

    avs [info]: 712x576p 16:15 @ 25/1 fps (cfr)
    x264 [info]: using SAR=16/15
    x264 [info]: using cpu capabilities: MMX2 SSE2Fast SSSE3 SSE4.2
    x264 [info]: profile High, level 4.1
    x264 [info]: frame I:525 Avg QP:21.47 size: 52536
    x264 [info]: frame P:20575 Avg QP:22.63 size: 24844
    x264 [info]: frame B:76655 Avg QP:24.09 size: 8903
    x264 [info]: consecutive B-frames: 1.4% 1.8% 7.2% 20.5% 13.7% 48.7% 4.1% 1.1% 1.1% 0.4%
    x264 [info]: mb I I16..4: 4.2% 86.7% 9.0%
    x264 [info]: mb P I16..4: 0.1% 13.0% 0.7% P16..4: 32.5% 37.6% 14.3% 1.3% 0.1% skip: 0.5%
    x264 [info]: mb B I16..4: 0.0% 1.5% 0.1% B16..8: 41.5% 24.5% 5.0% direct: 6.6% skip:20.7% L0:40.4% L1:45.6% BI:14.0%
    x264 [info]: 8x8 transform intra:93.9% inter:67.1%
    x264 [info]: coded y,uvDC,uvAC intra: 98.3% 59.7% 17.8% inter: 37.8% 18.9% 0.3%
    x264 [info]: i16 v,h,dc,p: 9% 16% 30% 45%
    x264 [info]: i8 v,h,dc,ddl,ddr,vr,hd,vl,hu: 7% 11% 9% 10% 13% 12% 13% 12% 13%
    x264 [info]: i4 v,h,dc,ddl,ddr,vr,hd,vl,hu: 8% 10% 2% 8% 15% 16% 16% 12% 14%
    x264 [info]: i8c dc,h,v,p: 32% 34% 20% 13%
    x264 [info]: Weighted P-Frames: Y:23.7% UV:8.8%
    x264 [info]: ref P L0: 40.6% 14.6% 15.5% 6.1% 4.9% 3.6% 3.3% 1.8% 1.7% 1.4% 1.4% 1.2% 1.2% 1.0% 1.0% 0.7%
    x264 [info]: ref B L0: 76.4% 8.4% 3.8% 2.3% 1.8% 1.6% 1.3% 0.8% 0.7% 0.7% 0.6% 0.6% 0.5% 0.3% 0.2%
    x264 [info]: ref B L1: 95.4% 4.6%
    x264 [info]: kb/s:2498.56
    x264 [total]: encoded 97755 frames, 9.48 fps, 2498.56 kb/s
    -General
    Unique ID : 224355571161697630505485430753403743425 (0xA8C94FAF53F16FD3BA9E55ADD6B22CC1)
    Complete name : В поисках капитана Гранта.1985.6 серия.mkv
    Format : Matroska
    Format version : Version 2
    File size : 1.34 GiB
    Duration : 1h 5mn
    Overall bit rate : 2 948 Kbps
    Movie name : «В поисках капитана Гранта»
    Encoded date : UTC 2015-01-10 17:09:06
    Writing application : mkvmerge v5.8.0 ('No Sleep / Pillow') built on Sep 2 2012 15:37:04
    Writing library : libebml v1.2.3 + libmatroska v1.3.0
    Comment : DVDRip-AVC
    Originally released : January 10th 2015
    Encoded by : george$t®
    Video
    ID : 1
    Format : AVC
    Format/Info : Advanced Video Codec
    Format profile : High@L4.1
    Format settings, CABAC : Yes
    Format settings, ReFrames : 16 frames
    Codec ID : V_MPEG4/ISO/AVC
    Duration : 1h 5mn
    Bit rate : 2 442 Kbps
    Width : 712 pixels
    Height : 576 pixels
    Display aspect ratio : 4:3
    Original display aspect ratio : 4:3
    Frame rate mode : Constant
    Frame rate : 25.000 fps
    Color space : YUV
    Chroma subsampling : 4:2:0
    Bit depth : 8 bits
    Scan type : Progressive
    Bits/(Pixel*Frame) : 0.238
    Stream size : 1.11 GiB (83%)
    Title : В поисках капитана Гранта.1985.6 серия
    Writing library : x264 core 130 r2273 b3065e6
    Encoding settings : cabac=1 / ref=16 / deblock=1:-1:-1 / analyse=0x3:0x133 / me=umh / subme=11 / psy=1 / psy_rd=1.00:0.10 / mixed_ref=1 / me_range=48 / chroma_me=1 / trellis=2 / 8x8dct=1 / cqm=0 / deadzone=21,11 / fast_pskip=1 / chroma_qp_offset=-3 / threads=12 / lookahead_threads=2 / sliced_threads=0 / nr=0 / decimate=1 / interlaced=0 / bluray_compat=0 / constrained_intra=0 / bframes=9 / b_pyramid=2 / b_adapt=2 / b_bias=0 / direct=1 / weightb=1 / open_gop=0 / weightp=2 / keyint=250 / keyint_min=25 / scenecut=40 / intra_refresh=0 / rc_lookahead=40 / rc=crf / mbtree=0 / crf=19.9 / qcomp=0.65 / qpmin=0 / qpmax=32 / qpstep=4 / vbv_maxrate=50000 / vbv_bufsize=62500 / crf_max=0.0 / nal_hrd=none / ip_ratio=1.30 / pb_ratio=1.25 / aq=1:0.90
    Language : Russian
    Default : Yes
    Forced : No
    Color primaries : BT.601 PAL
    Transfer characteristics : BT.470 System B, BT.470 System G
    Matrix coefficients : BT.601
    Audio
    ID : 2
    Format : AC-3
    Format/Info : Audio Coding 3
    Mode extension : CM (complete main)
    Format settings, Endianness : Big
    Codec ID : A_AC3
    Duration : 1h 5mn
    Bit rate mode : Constant
    Bit rate : 448 Kbps
    Channel(s) : 6 channels
    Channel positions : Front: L C R, Side: L R, LFE
    Sampling rate : 48.0 KHz
    Bit depth : 16 bits
    Compression mode : Lossy
    Stream size : 209 MiB (15%)
    Title : Оригинал: AC-3; 16 bits 48 Khz; 5.1 ch 448 Kbps; CBR
    Language : Russian
    Default : Yes
    Forced : No
    7 серия

    -

    x264 log

    avs [info]: 712x576p 16:15 @ 25/1 fps (cfr)
    x264 [info]: using SAR=16/15
    x264 [info]: using cpu capabilities: MMX2 SSE2Fast SSSE3 SSE4.2
    x264 [info]: profile High, level 4.1
    x264 [info]: frame I:574 Avg QP:20.54 size: 48674
    x264 [info]: frame P:22492 Avg QP:21.78 size: 23320
    x264 [info]: frame B:86671 Avg QP:23.35 size: 8641
    x264 [info]: consecutive B-frames: 1.3% 1.8% 5.4% 18.8% 15.0% 49.2% 5.2% 1.4% 1.3% 0.4% 0.2%
    x264 [info]: mb I I16..4: 5.3% 84.2% 10.5%
    x264 [info]: mb P I16..4: 0.1% 12.8% 0.6% P16..4: 33.4% 38.5% 13.0% 1.0% 0.0% skip: 0.5%
    x264 [info]: mb B I16..4: 0.0% 1.1% 0.0% B16..8: 43.2% 24.2% 5.0% direct: 6.9% skip:19.7% L0:43.3% L1:45.9% BI:10.8%
    x264 [info]: 8x8 transform intra:93.4% inter:67.1%
    x264 [info]: coded y,uvDC,uvAC intra: 98.5% 57.3% 18.5% inter: 37.9% 21.1% 0.4%
    x264 [info]: i16 v,h,dc,p: 12% 19% 26% 44%
    x264 [info]: i8 v,h,dc,ddl,ddr,vr,hd,vl,hu: 6% 12% 9% 10% 13% 12% 14% 11% 13%
    x264 [info]: i4 v,h,dc,ddl,ddr,vr,hd,vl,hu: 7% 12% 2% 8% 15% 15% 16% 11% 14%
    x264 [info]: i8c dc,h,v,p: 31% 37% 19% 12%
    x264 [info]: Weighted P-Frames: Y:21.5% UV:8.8%
    x264 [info]: ref P L0: 37.8% 13.3% 15.5% 6.6% 5.5% 4.1% 3.7% 2.0% 2.0% 1.7% 1.6% 1.4% 1.4% 1.3% 1.3% 0.9%
    x264 [info]: ref B L0: 69.8% 10.1% 5.0% 3.0% 2.3% 2.1% 1.7% 1.1% 1.0% 0.9% 0.8% 0.8% 0.7% 0.5% 0.2%
    x264 [info]: ref B L1: 93.9% 6.1%
    x264 [info]: kb/s:2371.80
    x264 [total]: encoded 109737 frames, 9.36 fps, 2371.80 kb/s
    -General
    Unique ID : 205006842806562186767652719106637912850 (0x9A3AE1B97C765D688CF93A88601F5B12)
    Complete name : В поисках капитана Гранта.1985.7 серия.mkv
    Format : Matroska
    Format version : Version 2
    File size : 1.44 GiB
    Duration : 1h 13mn
    Overall bit rate : 2 822 Kbps
    Movie name : «В поисках капитана Гранта»
    Encoded date : UTC 2015-01-12 18:04:31
    Writing application : mkvmerge v5.8.0 ('No Sleep / Pillow') built on Sep 2 2012 15:37:04
    Writing library : libebml v1.2.3 + libmatroska v1.3.0
    Comment : DVDRip-AVC
    Originally released : January 12th 2015
    Encoded by : george$t®
    Video
    ID : 1
    Format : AVC
    Format/Info : Advanced Video Codec
    Format profile : High@L4.1
    Format settings, CABAC : Yes
    Format settings, ReFrames : 16 frames
    Codec ID : V_MPEG4/ISO/AVC
    Duration : 1h 13mn
    Bit rate : 2 317 Kbps
    Width : 712 pixels
    Height : 576 pixels
    Display aspect ratio : 4:3
    Original display aspect ratio : 4:3
    Frame rate mode : Constant
    Frame rate : 25.000 fps
    Color space : YUV
    Chroma subsampling : 4:2:0
    Bit depth : 8 bits
    Scan type : Progressive
    Bits/(Pixel*Frame) : 0.226
    Stream size : 1.18 GiB (82%)
    Title : В поисках капитана Гранта.1985.7 серия
    Writing library : x264 core 130 r2273 b3065e6
    Encoding settings : cabac=1 / ref=16 / deblock=1:-1:-1 / analyse=0x3:0x133 / me=umh / subme=11 / psy=1 / psy_rd=1.05:0.10 / mixed_ref=1 / me_range=48 / chroma_me=1 / trellis=2 / 8x8dct=1 / cqm=0 / deadzone=21,11 / fast_pskip=1 / chroma_qp_offset=-3 / threads=12 / lookahead_threads=3 / sliced_threads=0 / nr=0 / decimate=1 / interlaced=0 / bluray_compat=0 / constrained_intra=0 / bframes=10 / b_pyramid=2 / b_adapt=2 / b_bias=0 / direct=1 / weightb=1 / open_gop=0 / weightp=2 / keyint=250 / keyint_min=25 / scenecut=40 / intra_refresh=0 / rc_lookahead=40 / rc=crf / mbtree=0 / crf=19.7 / qcomp=0.65 / qpmin=0 / qpmax=32 / qpstep=4 / vbv_maxrate=50000 / vbv_bufsize=62500 / crf_max=0.0 / nal_hrd=none / ip_ratio=1.30 / pb_ratio=1.25 / aq=1:0.80
    Language : Russian
    Default : Yes
    Forced : No
    Color primaries : BT.601 PAL
    Transfer characteristics : BT.470 System B, BT.470 System G
    Matrix coefficients : BT.601
    Audio
    ID : 2
    Format : AC-3
    Format/Info : Audio Coding 3
    Mode extension : CM (complete main)
    Format settings, Endianness : Big
    Codec ID : A_AC3
    Duration : 1h 13mn
    Bit rate mode : Constant
    Bit rate : 448 Kbps
    Channel(s) : 6 channels
    Channel positions : Front: L C R, Side: L R, LFE
    Sampling rate : 48.0 KHz
    Bit depth : 16 bits
    Compression mode : Lossy
    Stream size : 234 MiB (16%)
    Title : Оригинал: AC-3; 16 bits 48 Khz; 5.1 ch 448 Kbps; CBR
    Language : Russian
    Default : Yes
    Forced : No
    Скачать .torrent

    Скачать торрент-файл бесплатно и на максимальной скорости!

    Как скачивать? · Что такое торрент? · Рейтинг и ограничения

    !ВНИМАНИЕ!
    Сайт не распространяет и не хранит электронные версии произведений, а занимается лишь лишь предоставлением доступа к создаваемому пользователями каталогу ссылок на торрент-файлы, которые содержат только списки хеш-сумм, убедительная просьба с жалобами обращаться напрямую к пользователю. Файлы для обмена на трекере предоставлены пользователями сайта, и администрация не несёт ответственности за их содержание. Просьба не заливать файлы, защищенные авторскими правами, а также файлы нелегального содержания!


    _________________
    [Профиль] [ЛС]
    Показать сообщения:    
    Ответить на тему

    Текущее время: Сегодня, в 08:21

    Часовой пояс: GMT + 2



    Вы не можете начинать темы
    Вы не можете отвечать на сообщения
    Вы не можете редактировать свои сообщения
    Вы не можете удалять свои сообщения
    Вы не можете голосовать в опросах
    Вы не можете прикреплять файлы к сообщениям
    Вы не можете скачивать файлы