BitTorrentTracker PerecTracker.org
BitTorrentTracker PerecTracker.org
    
Регистрация  ·  Вход
 
 · 
Забыли пароль?

  • Туфли с золотыми пряжками (Георгий Юнгвальд-Хилькевич) [1976, Сказка, DVDRip]

    Ответить на тему
     
    Автор Сообщение

    Light

    Создавать темы 21-Мар-2015 19:55

           

    [Цитировать]

    Туфли с золотыми пряжками (2 серии)
    Жанр: Сказка
    Год выпуска: 1976
    Продолжительность: 01:04:05 + 01:04:10
    Режиссёр: Георгий Юнгвальд-Хилькевич
    В ролях: Владимир Герасимов (Иванушка),
    Ирина Малышева (Царевна Марьюшка), Лев Дуров (Царь-батюшка), Игорь Дмитриев (Сыщик), Павел Винник (Лесоруб), Александр Хочинский (Плут), Владимир Старостин (Тимоня-скоморох), Всеволод Якут (Сыщик), Олег Белов (Разбойник «Рыжий»), Георгий Штиль (Разбойник), Юрий Медведев (Кучер), Елена Папанова (Сенная девушка), Петр Бенюк (Стражник), Юрий Эллер (Стражник), Николай Кузьмин (II) (отец Иванушки), Вера Кузнецова (Нянька), Георгий Светлани (Ярыжка-кочерыжка), Л. Яппарова (Девка с конопушками), Наталья Горленко (Дунька).
    Описание: Любишь кататься - имей сто рублей". Это далеко не единственный перл народной мудрости, которой переполнена веселая сказка о любви сбежавшей царевны и Ивана-сына лапотника. Этот фильм дышит подлинным древнерусским колоритом, ведь снимался он на территории уникального музея деревянного зодчества города Новгород.
    Музыкальный фильм по мотивам русских народных сказок. У Царя-батюшки пропали туфли с золотыми пряжками. Кто сможет разыскать пропажу? Заморские сыщики, разбойники или Иванушка, влюбленный в Царевну Марьюшку.
    Отец Иванушки плетёт лучшие во всей округе лапти. Своё умение он передал сыну, но что-то грустно стало в последнее время Ивану и он отпросился у родителей сходить на ярмарку, купить себе немного счастья. Деньги — полный кошель медяков, он по дороге истратил. Половину дал разбойникам, чтобы выручить из беды скомороха Тимоню, а другую у него выманил ярмарочный плут.
    Повстречал Иван на ярмарке Марьюшку и понял, что это и есть его счастье. Но девушка оказалась дочкой Царя-батюшки, убежавшей тайком из царского дворца, посмотреть как народ веселится…
    Доп. информация: В фильме звучат песни Владимира Высоцкого "Скоморохи на ярмарке" ("Эй, народ честной, незадачливый!.. ") и "Серенада Соловья-разбойника" ("Выходи, я тебе посвищу серенаду... ").
    Семпл: http://multi-up.com/1027851
    Качество видео: DVDRip
    Формат видео: AVI
    Видео: 688x528 (1.30:1), 25 fps, XviD build 64 ~2239 kbps avg, 0.25 bit/pixel
    Аудио: 48 kHz, AC3 Dolby Digital, 2/0 (L,R) ch, ~192 kbps avg

    MediaInfo

    General
    Complete name : D:\Фильмы\Туфли с золотыми пряжками DVDRip 1976\Туфли с золотыми пряжками-1.avi
    Format : AVI
    Format/Info : Audio Video Interleave
    File size : 1.09 GiB
    Duration : 1h 4mn
    Overall bit rate : 2 441 Kbps
    Writing library : VirtualDub build 35390/release
    Video
    ID : 0
    Format : MPEG-4 Visual
    Format profile : Advanced Simple@L5
    Format settings, BVOP : No
    Format settings, QPel : No
    Format settings, GMC : No warppoints
    Format settings, Matrix : Custom
    Codec ID : XVID
    Codec ID/Hint : XviD
    Duration : 1h 4mn
    Bit rate : 2 239 Kbps
    Width : 688 pixels
    Height : 528 pixels
    Display aspect ratio : 4:3
    Frame rate : 25.000 fps
    Color space : YUV
    Chroma subsampling : 4:2:0
    Bit depth : 8 bits
    Scan type : Progressive
    Bits/(Pixel*Frame) : 0.247
    Stream size : 1.00 GiB (92%)
    Writing library : XviD 64
    Audio
    ID : 1
    Format : AC-3
    Format/Info : Audio Coding 3
    Mode extension : CM (complete main)
    Codec ID : 2000
    Duration : 1h 4mn
    Bit rate mode : Constant
    Bit rate : 192 Kbps
    Channel(s) : 2 channels
    Channel positions : Front: L R
    Sampling rate : 48.0 KHz
    Bit depth : 16 bits
    Stream size : 88.0 MiB (8%)
    Alignment : Aligned on interleaves
    Interleave, duration : 40 ms (1.00 video frame)
    Interleave, preload duration : 512 ms
    General
    Complete name : D:\Фильмы\Туфли с золотыми пряжками DVDRip 1976\Туфли с золотыми пряжками-2.avi
    Format : AVI
    Format/Info : Audio Video Interleave
    File size : 1.09 GiB
    Duration : 1h 4mn
    Overall bit rate : 2 441 Kbps
    Writing library : VirtualDub build 35390/release
    Video
    ID : 0
    Format : MPEG-4 Visual
    Format profile : Advanced Simple@L5
    Format settings, BVOP : No
    Format settings, QPel : No
    Format settings, GMC : No warppoints
    Format settings, Matrix : Custom
    Codec ID : XVID
    Codec ID/Hint : XviD
    Duration : 1h 4mn
    Bit rate : 2 239 Kbps
    Width : 688 pixels
    Height : 528 pixels
    Display aspect ratio : 4:3
    Frame rate : 25.000 fps
    Color space : YUV
    Chroma subsampling : 4:2:0
    Bit depth : 8 bits
    Scan type : Progressive
    Bits/(Pixel*Frame) : 0.247
    Stream size : 1.00 GiB (92%)
    Writing library : XviD 64
    Audio
    ID : 1
    Format : AC-3
    Format/Info : Audio Coding 3
    Mode extension : CM (complete main)
    Codec ID : 2000
    Duration : 1h 4mn
    Bit rate mode : Constant
    Bit rate : 192 Kbps
    Channel(s) : 2 channels
    Channel positions : Front: L R
    Sampling rate : 48.0 KHz
    Bit depth : 16 bits
    Stream size : 88.1 MiB (8%)
    Alignment : Aligned on interleaves
    Interleave, duration : 40 ms (1.00 video frame)
    Interleave, preload duration : 512 ms

    Скриншоты

    Скачать .torrent

    Скачать торрент-файл бесплатно и на максимальной скорости!

    Как скачивать? · Что такое торрент? · Рейтинг и ограничения

    !ВНИМАНИЕ!
    Сайт не распространяет и не хранит электронные версии произведений, а занимается лишь лишь предоставлением доступа к создаваемому пользователями каталогу ссылок на торрент-файлы, которые содержат только списки хеш-сумм, убедительная просьба с жалобами обращаться напрямую к пользователю. Файлы для обмена на трекере предоставлены пользователями сайта, и администрация не несёт ответственности за их содержание. Просьба не заливать файлы, защищенные авторскими правами, а также файлы нелегального содержания!


    _________________
    [Профиль] [ЛС]
    Показать сообщения:    
    Ответить на тему

    Текущее время: Сегодня, в 18:08

    Часовой пояс: GMT + 2



    Вы не можете начинать темы
    Вы не можете отвечать на сообщения
    Вы не можете редактировать свои сообщения
    Вы не можете удалять свои сообщения
    Вы не можете голосовать в опросах
    Вы не можете прикреплять файлы к сообщениям
    Вы не можете скачивать файлы