Register  ·  Log in
Forgot password?

  • Иван да Марья (Борис Рыцарев) [1974 г., сказка, детский, DVB]

    Reply to topic
    Author Message


    Post 21-Mar-2015 20:55



    Иван да Марья
    Жанр: сказка, детский
    Год выпуска: 1974
    Продолжительность: 01:22:44
    Режиссёры: Борис Рыцарев
    В ролях: Иван Бортник, Татьяна Пискунова, Иван Рыжов, Лия Ахеджакова, Елизавета Уварова, Николай Бурляев, Лев Круглый, Виктор Сергачев, Михаил Козаков, Валентин Гафт
    Описание: Дело было так: меж Евстигнеем XIII, вздорным царем-самодуром, и солдатом Иваном произошел нешуточный спор — как жить правильно. Иван — человек бывалый, к тому же на все руки мастер конечно, возьмет верх над вздорным государем. А до поры приключится в царстве много необычного и веселого…
    Доп. информация:

    Качество видео: DVB (Yamal 402 at 54.9°E)
    Формат видео: MPEG-PS
    Видео: MPEG2 Video, 720x576 (4:3), 25 fps, 4500 kbps
    Аудио: MPEG Audiо, 2 сh, 48 kHz, 192 kbps


    Complete name : G:\Иван да Марья. (1974)_DVB by SLuMeP.mpg
    Format : MPEG-PS
    File size : 2.74 GiB
    Duration : 1h 22mn
    Overall bit rate mode : Variable
    Overall bit rate : 4 745 Kbps
    Writing library : (dvd5: Jun 16 2014)
    ID : 224 (0xE0)
    Format : MPEG Video
    Format version : Version 2
    Format profile : Main@Main
    Format settings, BVOP : Yes
    Format settings, Matrix : Custom
    Format settings, GOP : M=3, N=12
    Duration : 1h 22mn
    Bit rate mode : Variable
    Bit rate : 4 458 Kbps
    Maximum bit rate : 15.0 Mbps
    Width : 720 pixels
    Height : 576 pixels
    Display aspect ratio : 4:3
    Frame rate : 25.000 fps
    Standard : PAL
    Color space : YUV
    Chroma subsampling : 4:2:0
    Bit depth : 8 bits
    Scan type : Interlaced
    Scan order : Top Field First
    Compression mode : Lossy
    Bits/(Pixel*Frame) : 0.430
    Time code of first frame : 00:00:00:00
    Time code source : Group of pictures header
    Stream size : 2.58 GiB (94%)
    Source encoded stream size : (dvd5: Jun 16 2014)
    Writing library : (dvd5: Jun 16 2014)
    ID : 192 (0xC0)
    Format : MPEG Audio
    Format version : Version 1
    Format profile : Layer 2
    Duration : 1h 22mn
    Bit rate mode : Constant
    Bit rate : 192 Kbps
    Channel(s) : 2 channels
    Sampling rate : 48.0 KHz
    Compression mode : Lossy
    Delay relative to video : -80ms
    Stream size : 114 MiB (4%)


    Download .torrent

    Download free and at maximum speed!

    How to Download? · What is a torrent? · Ratings and Limitations

    The site does not extend and does not store electronic(digital) versions of products, and only gives access to a reference catalogue created by users on torrent-files which contain only lists of the hash-sums, the earnest entreaty, with complaints(abuse) to access directly to the user. Files for an exchange on tracker are given by users of a site, and the administration does not bear the responsibility for their maintenance. The request to not fill in the files protected by copyrights, and also files of the illegal maintenance!

    [Profile] [PM]
    Display posts from previous:    
    Reply to topic

    The time now is: Today 13:33

    All times are GMT + 3 Hours

    You cannot post new topics in this forum
    You cannot reply to topics in this forum
    You cannot edit your posts in this forum
    You cannot delete your posts in this forum
    You cannot vote in polls in this forum
    You cannot attach files in this forum
    You cannot download files in this forum