BitTorrentTracker PerecTracker.org
BitTorrentTracker PerecTracker.org
    
Регистрация  ·  Вход
 
 · 
Забыли пароль?

  • Двенадцать месяцев (Анатолий Граник) [1972, Сказка, DVDRip]

    Ответить на тему
     
    Автор Сообщение

    Light

    Создавать темы 21-Мар-2015 19:55

           

    [Цитировать]

    Двенадцать месяцев (2 серии)
    Жанр: Сказка
    Год выпуска: 1972
    Продолжительность: 02:18:47
    Режиссёр: Анатолий Граник
    В ролях: Наталья Попова, Лиана Жвания, Николай Волков, Ольга Викланд, Марина Мальцева, Татьяна Пельтцер, Константин Адашевский, Леонид Куравлев, Александр Соколов, Георгий Тейх, Алексей Кожевников, Лев Лемке, Аркадий Трусов, Борис Рыжухин, Александр Афанасьев, Андрей Босов
    Описание:Сказка по пьесе С. Маршака. Снежной холодной зимой, под вечер, в канун Нового года, когда люди сидят в домах, прислушиваясь к треску поленьев в печи,когда добрая хозяйка собаку из дома не выгонит, злая мачеха отправила свою падчерицу в лес за подснежниками. Бедной девочке ничего не оставалось, как исполнить эту прихоть...
    Доп. информация: Новогодняя театральная сказка Самуила Маршака много лет не сходила со сцены десятков детских театров нашей страны. В фильме она обрела второе рождение, сохранив свою театральность и детскую непосредственность. Это история о том, как жадность одной и каприз другой едва не обрекли на гибель третью - как и положено в сказках, милую, добрую и беззащитную. Такую же, как и подснежники, которые эта девушка все-таки нашла в новогоднем лесу. Блестящий двухсерийный телевизионный фильм, на котором выросло не одно поколение детей нашей страны, выпущен на DVD киновидеообъединением "Крупный план" в 2007 году.
    Семпл: http://multi-up.com/1030143
    Качество видео: DVDRip
    Формат видео: AVI
    Видео: 704x528 (1.33:1), 25 fps, XviD build 64 ~2055 kbps avg, 0.22 bit/pixel
    Аудио: 48 kHz, AC3 Dolby Digital, 2/0 (L,R) ch, ~192 kbps avg

    MediaInfo

    General
    Complete name : D:\Фильмы\Двенадцать месяцев DVDRip 1972.avi
    Format : AVI
    Format/Info : Audio Video Interleave
    Format profile : OpenDML
    File size : 2.19 GiB
    Duration : 2h 18mn
    Overall bit rate : 2 259 Kbps
    Writing library : VirtualDub build 35390/release
    Video
    ID : 0
    Format : MPEG-4 Visual
    Format profile : Advanced Simple@L5
    Format settings, BVOP : No
    Format settings, QPel : No
    Format settings, GMC : No warppoints
    Format settings, Matrix : Custom
    Codec ID : XVID
    Codec ID/Hint : XviD
    Duration : 2h 18mn
    Bit rate : 2 055 Kbps
    Width : 704 pixels
    Height : 528 pixels
    Display aspect ratio : 4:3
    Frame rate : 25.000 fps
    Color space : YUV
    Chroma subsampling : 4:2:0
    Bit depth : 8 bits
    Scan type : Progressive
    Bits/(Pixel*Frame) : 0.221
    Stream size : 1.99 GiB (91%)
    Writing library : XviD 64
    Audio
    ID : 1
    Format : AC-3
    Format/Info : Audio Coding 3
    Mode extension : CM (complete main)
    Codec ID : 2000
    Duration : 2h 18mn
    Bit rate mode : Constant
    Bit rate : 192 Kbps
    Channel(s) : 2 channels
    Channel positions : Front: L R
    Sampling rate : 48.0 KHz
    Bit depth : 16 bits
    Stream size : 191 MiB (8%)
    Alignment : Aligned on interleaves
    Interleave, duration : 40 ms (1.00 video frame)
    Interleave, preload duration : 512 ms

    Скриншоты

    Скачать .torrent

    Скачать торрент-файл бесплатно и на максимальной скорости!

    Как скачивать? · Что такое торрент? · Рейтинг и ограничения

    !ВНИМАНИЕ!
    Сайт не распространяет и не хранит электронные версии произведений, а занимается лишь лишь предоставлением доступа к создаваемому пользователями каталогу ссылок на торрент-файлы, которые содержат только списки хеш-сумм, убедительная просьба с жалобами обращаться напрямую к пользователю. Файлы для обмена на трекере предоставлены пользователями сайта, и администрация не несёт ответственности за их содержание. Просьба не заливать файлы, защищенные авторскими правами, а также файлы нелегального содержания!


    _________________
    [Профиль] [ЛС]

    -746

    Создавать темы 24-Янв-2016 21:26 (спустя 10 месяцев 3 дня)

           

    Топик был перенесен из форума Детские отечественные фильмы в форум Новогодние релизы - Фильмы, Мультфильмы


    -sasha2006

    _________________
    Как бы ты высоко не летал, не забывай, с кем ты ползал..
     
    Показать сообщения:    
    Ответить на тему

    Текущее время: Сегодня, в 22:25

    Часовой пояс: GMT + 2



    Вы не можете начинать темы
    Вы не можете отвечать на сообщения
    Вы не можете редактировать свои сообщения
    Вы не можете удалять свои сообщения
    Вы не можете голосовать в опросах
    Вы не можете прикреплять файлы к сообщениям
    Вы не можете скачивать файлы