BitTorrentTracker PerecTracker.org
BitTorrentTracker PerecTracker.org
    
Регистрация  ·  Вход
 
 · 
Забыли пароль?

  • Тайна железной двери (Михаил Юзовский) [1970, Детский, фантастика, приключения, семейный, DVDRip]

    Ответить на тему
     
    Автор Сообщение

    Light

    Создавать темы 21-Мар-2015 19:55

           

    [Цитировать]

    Тайна железной двериЖанр: Детский, фантастика, приключения, семейный
    Год выпуска: 1970
    Продолжительность: 01:08:17
    Режиссёр: Михаил Юзовский
    В ролях: Алиса Фрейндлих, Олег Табаков, Савелий Крамаров, Юрий Успенский, Эвальдас Микалюнас, Андрей Харыбин, Мичислав Юзовский, Сергей Евсюнин, Валерий Фоменков, Алексей Горизонтов
    Описание: Каждый из нас мечтает когда-нибудь найти волшебную палочку, спички или хотя бы "цветик-семицветик", исполняющие любые желания. Мечтать-то мы мечтаем, а вот мальчик Толя Рыжков нашел, хотя, между нами говоря, не был достоин такого везения. Он был большой врун и шалун, маму не слушался, младших обижал, правила дорожного движения нарушал. И в тот злополучный день, с которого начались его невероятные приключения, вел себя плохо. Даже милиционера разозлил! Удирая от него, Толя встретил волшебника, у которого отобрал коробок волшебных спичек. За это злой волшебник (бывают, к сожалению, и такие) перенес Толю на свой волшебный остров. А что из этого получилось, вы узнаете посмотрев этот веселый и увлекательный приключенческий фильм!
    Доп. информация:

    Рип от:
    Сэмпл: http://multi-up.com/1030508
    Качество видео: DVDRip
    Формат видео: AVI
    Видео: 640x480 (1.33:1), 25 fps, XviD build 73 ~1397 kbps avg, 0.18 bit/pixel
    Аудио: 48 kHz, MPEG Layer 3, 2 ch, ~128.00 kbps avg

    MediaInfo

    General
    Complete name : D:\Торренты\Мой рип\Тайна жёлтой двери\Тайна железной двери.by Шкипер.avi
    Format : AVI
    Format/Info : Audio Video Interleave
    File size : 750 MiB
    Duration : 1h 8mn
    Overall bit rate : 1 535 Kbps
    Writing application : VirtualDubMod 1.5.10.3 | www.virtualdub-fr.org || (build 2550/release)
    Writing library : VirtualDubMod build 2550/release
    Video
    ID : 0
    Format : MPEG-4 Visual
    Format profile : Advanced Simple@L5
    Format settings, BVOP : 1
    Format settings, QPel : No
    Format settings, GMC : No warppoints
    Format settings, Matrix : Default (MPEG)
    Codec ID : XVID
    Codec ID/Hint : XviD
    Duration : 1h 8mn
    Bit rate : 1 397 Kbps
    Width : 640 pixels
    Height : 480 pixels
    Display aspect ratio : 4:3
    Frame rate : 25.000 fps
    Color space : YUV
    Chroma subsampling : 4:2:0
    Bit depth : 8 bits
    Scan type : Progressive
    Compression mode : Lossy
    Bits/(Pixel*Frame) : 0.182
    Stream size : 683 MiB (91%)
    Writing library : XviD 73
    Audio
    ID : 1
    Format : MPEG Audio
    Format version : Version 1
    Format profile : Layer 3
    Mode : Joint stereo
    Codec ID : 55
    Codec ID/Hint : MP3
    Duration : 1h 8mn
    Bit rate mode : Constant
    Bit rate : 128 Kbps
    Channel(s) : 2 channels
    Sampling rate : 48.0 KHz
    Compression mode : Lossy
    Stream size : 62.5 MiB (8%)
    Alignment : Aligned on interleaves
    Interleave, duration : 40 ms (1.00 video frame)
    Interleave, preload duratio : 504 ms
    Writing library : LAME3.99r
    Encoding settings : -m j -V 4 -q 2 -lowpass 17 -b 128

    Скриншот c названием фильма

    Скриншоты

    Скачать .torrent

    Скачать торрент-файл бесплатно и на максимальной скорости!

    Как скачивать? · Что такое торрент? · Рейтинг и ограничения

    !ВНИМАНИЕ!
    Сайт не распространяет и не хранит электронные версии произведений, а занимается лишь лишь предоставлением доступа к создаваемому пользователями каталогу ссылок на торрент-файлы, которые содержат только списки хеш-сумм, убедительная просьба с жалобами обращаться напрямую к пользователю. Файлы для обмена на трекере предоставлены пользователями сайта, и администрация не несёт ответственности за их содержание. Просьба не заливать файлы, защищенные авторскими правами, а также файлы нелегального содержания!


    _________________
    [Профиль] [ЛС]
    Показать сообщения:    
    Ответить на тему

    Текущее время: Сегодня, в 08:16

    Часовой пояс: GMT + 2



    Вы не можете начинать темы
    Вы не можете отвечать на сообщения
    Вы не можете редактировать свои сообщения
    Вы не можете удалять свои сообщения
    Вы не можете голосовать в опросах
    Вы не можете прикреплять файлы к сообщениям
    Вы не можете скачивать файлы