BitTorrentTracker PerecTracker.org
BitTorrentTracker PerecTracker.org
    
Регистрация  ·  Вход
 
 · 
Забыли пароль?

  • Иван да Марья (Борис Рыцарев) [1974, сказка, SATRip]

    Ответить на тему
     
    Автор Сообщение

    Light

    Создавать темы 21-Мар-2015 19:55

           

    [Цитировать]

    Иван да Марья
    Жанр: сказка
    Год выпуска: 1974
    Продолжительность: 01:22:44
    Режиссёр: Борис Рыцарев
    В ролях: Иван Бортник, Татьяна Пискунова, Иван Рыжов, Лия Ахеджакова, Елизавета Уварова, Николай Бурляев, Лев Круглый, Виктор Сергачев, Михаил Козаков, Валентин Гафт
    Описание: Дело было так: меж Евстигнеем XIII, вздорным царем-самодуром, и солдатом Иваном произошел нешуточный спор — как жить правильно. Иван — человек бывалый, к тому же на все руки мастер конечно, возьмет верх над вздорным государем. А до поры приключится в царстве много необычного и веселого...
    Доп. информация:
    Семпл: http://multi-up.com/1031671
    Качество видео: SATRip
    Формат видео: AVI
    Видео: 704x368 (1.91:1), 25 fps, XviD build 64 ~2320 kbps avg, 0.36 bit/pixel
    Аудио: 48 kHz, AC3 Dolby Digital, 2/0 (L,R) ch, ~192 kbps avg

    MediaInfo

    General
    Complete name : C:\Users\samsung\Videos\Иван да Марья. SATRip- (1974).avi
    Format : AVI
    Format/Info : Audio Video Interleave
    File size : 1.46 GiB
    Duration : 1h 22mn
    Overall bit rate : 2 522 Kbps
    Writing library : VirtualDub build 35390/release
    Video
    ID : 0
    Format : MPEG-4 Visual
    Format profile : Advanced Simple@L5
    Format settings, BVOP : No
    Format settings, QPel : No
    Format settings, GMC : No warppoints
    Format settings, Matrix : Custom
    Codec ID : XVID
    Codec ID/Hint : XviD
    Duration : 1h 22mn
    Bit rate : 2 320 Kbps
    Width : 704 pixels
    Height : 368 pixels
    Display aspect ratio : 1.913
    Frame rate : 25.000 fps
    Color space : YUV
    Chroma subsampling : 4:2:0
    Bit depth : 8 bits
    Scan type : Progressive
    Bits/(Pixel*Frame) : 0.358
    Stream size : 1.34 GiB (92%)
    Writing library : XviD 64
    Audio
    ID : 1
    Format : AC-3
    Format/Info : Audio Coding 3
    Mode extension : CM (complete main)
    Codec ID : 2000
    Duration : 1h 22mn
    Bit rate mode : Constant
    Bit rate : 192 Kbps
    Channel(s) : 2 channels
    Channel positions : Front: L R
    Sampling rate : 48.0 KHz
    Bit depth : 16 bits
    Stream size : 114 MiB (8%)
    Alignment : Aligned on interleaves
    Interleave, duration : 40 ms (1.00 video frame)
    Interleave, preload duration : 512 ms

    Скриншоты

    Сравнение

    http://perectracker.org/viewtopic.php?t=1927333
    сравнение сделаю как только заработает сервис http://screenshotcomparison.com/
    Скачать .torrent

    Скачать торрент-файл бесплатно и на максимальной скорости!

    Как скачивать? · Что такое торрент? · Рейтинг и ограничения

    !ВНИМАНИЕ!
    Сайт не распространяет и не хранит электронные версии произведений, а занимается лишь лишь предоставлением доступа к создаваемому пользователями каталогу ссылок на торрент-файлы, которые содержат только списки хеш-сумм, убедительная просьба с жалобами обращаться напрямую к пользователю. Файлы для обмена на трекере предоставлены пользователями сайта, и администрация не несёт ответственности за их содержание. Просьба не заливать файлы, защищенные авторскими правами, а также файлы нелегального содержания!


    _________________
    [Профиль] [ЛС]
    Показать сообщения:    
    Ответить на тему

    Текущее время: Сегодня, в 12:17

    Часовой пояс: GMT + 2



    Вы не можете начинать темы
    Вы не можете отвечать на сообщения
    Вы не можете редактировать свои сообщения
    Вы не можете удалять свои сообщения
    Вы не можете голосовать в опросах
    Вы не можете прикреплять файлы к сообщениям
    Вы не можете скачивать файлы