BitTorrentTracker PerecTracker.org
BitTorrentTracker PerecTracker.org
    
Регистрация  ·  Вход
 
 · 
Забыли пароль?

  • Автомобиль, скрипка и собака Клякса (Ролан Быков) [1974, музыкальная комедия, SATRip-AVC]

    Ответить на тему
     
    Автор Сообщение

    Light

    Создавать темы 21-Мар-2015 19:55

           

    [Цитировать]

    Автомобиль, скрипка и собака Клякса-Жанр: музыкальная комедия
    Год выпуска: 1974
    Продолжительность: 01:35:46-Режиссёр: Ролан Быков-В ролях:
    Олег Анофриев, Ролан Быков, Георгий Вицин, Зиновий Гердт, Николай Гринько, Михаил Козаков, Алексей Смирнов, Спартак Мишулин, Саша Чернявский, Наталья Тенищева, Андрей Гусев, Цолак Вартазарян, Зоя Фёдорова, Галина Польских, Марина Полбенцева, Александр Жеромский, Виктор Фокин, Владимир Герасимов, Вадим Власов
    Описание:
    В большом дворе, окруженном старыми домами, живут герои этого фильма. Два школьных товарища влюблены в самую красивую девочку двора. Один из них, Давид, учится играть на скрипке, а другой, Олег, мастер на все руки - возится с машинами. А ещё у девочки есть маленький брат Кузя, который мечтает, чтобы у него было много-много кошек. Ведь из них легко сделать обезьян, превратить их в медведя и сделать его своим товарищем.-Исходник | Сэмпл | Кинопоиск-Качество видео: SATRip-AVC, благодарю Cheef mate за исходный материал.
    Формат видео: MKV
    Видео: x264 (High@L4.1); 712@759x356, Display aspect ratio 2.132:1, 25.000 fps, 1916 Kbps
    Аудио: AC-3; 16 bits 48 Khz; 2.0 ch 192 Kbps; CBR
    MediaInfo

    -

    x264 log

    avs [info]: 712x356p 16:15 @ 25/1 fps (cfr)
    x264 [info]: using SAR=16/15
    x264 [info]: using cpu capabilities: MMX2 SSE2Fast SSSE3 SSE4.2
    x264 [info]: profile High, level 4.1
    x264 [info]: frame I:868 Avg QP:15.81 size: 44256
    x264 [info]: frame P:33781 Avg QP:18.96 size: 19677
    x264 [info]: frame B:109022 Avg QP:20.85 size: 6169
    x264 [info]: consecutive B-frames: 2.4% 3.4% 9.5% 28.5% 17.2% 33.2% 3.8% 1.6% 0.5%
    x264 [info]: mb I I16..4: 2.8% 75.5% 21.6%
    x264 [info]: mb P I16..4: 0.3% 9.8% 1.9% P16..4: 29.8% 37.0% 17.7% 2.6% 0.2% skip: 0.5%
    x264 [info]: mb B I16..4: 0.0% 1.0% 0.2% B16..8: 38.5% 29.0% 6.0% direct: 7.1% skip:18.0% L0:38.5% L1:40.6% BI:20.9%
    x264 [info]: 8x8 transform intra:80.4% inter:60.6%
    x264 [info]: direct mvs spatial:97.7% temporal:2.3%
    x264 [info]: coded y,uvDC,uvAC intra: 92.8% 80.2% 41.8% inter: 39.7% 29.9% 5.5%
    x264 [info]: i16 v,h,dc,p: 15% 21% 3% 61%
    x264 [info]: i8 v,h,dc,ddl,ddr,vr,hd,vl,hu: 13% 10% 7% 9% 12% 13% 12% 12% 12%
    x264 [info]: i4 v,h,dc,ddl,ddr,vr,hd,vl,hu: 31% 11% 5% 6% 9% 10% 9% 8% 9%
    x264 [info]: i8c dc,h,v,p: 27% 31% 23% 19%
    x264 [info]: Weighted P-Frames: Y:29.3% UV:14.5%
    x264 [info]: ref P L0: 40.7% 14.6% 13.7% 6.4% 4.8% 3.8% 3.2% 2.0% 1.9% 1.6% 1.5% 1.4% 1.3% 1.2% 1.2% 0.9%
    x264 [info]: ref B L0: 79.5% 7.7% 3.1% 1.9% 1.4% 1.3% 1.0% 0.7% 0.6% 0.6% 0.5% 0.5% 0.5% 0.3% 0.2%
    x264 [info]: ref B L1: 95.9% 4.1%
    x264 [info]: kb/s:1915.05
    x264 [total]: encoded 143671 frames, 14.65 fps, 1915.05 kb/s
    -General
    Unique ID : 177572310901716885189363998987551823912 (0x85972EDEB8CAD8DF8E4ACBE01794D828)
    Complete name : Автомобиль скрипка и собака Клякса.1974.mkv
    Format : Matroska
    Format version : Version 2
    File size : 1.41 GiB
    Duration : 1h 35mn
    Overall bit rate : 2 109 Kbps
    Movie name : «Автомобиль скрипка и собака Клякса»
    Encoded date : UTC 2015-02-13 09:35:46
    Writing application : mkvmerge v5.8.0 ('No Sleep / Pillow') built on Sep 2 2012 15:37:04
    Writing library : libebml v1.2.3 + libmatroska v1.3.0
    Comment : SATRip-AVC
    Originally released : Febuary 13th 2015
    Encoded by : george$t®
    Video
    ID : 1
    Format : AVC
    Format/Info : Advanced Video Codec
    Format profile : High@L4.1
    Format settings, CABAC : Yes
    Format settings, ReFrames : 16 frames
    Codec ID : V_MPEG4/ISO/AVC
    Duration : 1h 35mn
    Bit rate : 1 915 Kbps
    Width : 712 pixels
    Height : 356 pixels
    Display aspect ratio : 2.132
    Original display aspect rat : 2.133
    Frame rate mode : Constant
    Frame rate : 25.000 fps
    Color space : YUV
    Chroma subsampling : 4:2:0
    Bit depth : 8 bits
    Scan type : Progressive
    Bits/(Pixel*Frame) : 0.302
    Stream size : 1.25 GiB (89%)
    Title : Автомобиль скрипка и собака Клякса.1974
    Writing library : x264 core 144 r2525 40bb568
    Encoding settings : cabac=1 / ref=16 / deblock=1:-1:-1 / analyse=0x3:0x133 / me=umh / subme=11 / psy=1 / psy_rd=1.00:0.00 / mixed_ref=1 / me_range=48 / chroma_me=1 / trellis=2 / 8x8dct=1 / cqm=0 / deadzone=21,11 / fast_pskip=0 / chroma_qp_offset=-2 / threads=12 / lookahead_threads=2 / sliced_threads=0 / nr=0 / decimate=0 / interlaced=0 / bluray_compat=0 / constrained_intra=0 / bframes=8 / b_pyramid=2 / b_adapt=2 / b_bias=0 / direct=3 / weightb=1 / open_gop=0 / weightp=2 / keyint=250 / keyint_min=25 / scenecut=40 / intra_refresh=0 / rc_lookahead=40 / rc=2pass / mbtree=0 / bitrate=1915 / ratetol=1.0 / qcomp=0.60 / qpmin=0 / qpmax=69 / qpstep=4 / cplxblur=20.0 / qblur=0.5 / vbv_maxrate=50000 / vbv_bufsize=62500 / nal_hrd=none / filler=0 / ip_ratio=1.40 / pb_ratio=1.30 / aq=1:0.80
    Language : Russian
    Default : Yes
    Forced : No
    Color primaries : BT.601 PAL
    Transfer characteristics : BT.470 System B, BT.470 System G
    Matrix coefficients : BT.601
    Color range : Limited
    Audio
    ID : 2
    Format : AC-3
    Format/Info : Audio Coding 3
    Mode extension : CM (complete main)
    Format settings, Endianness : Big
    Codec ID : A_AC3
    Duration : 1h 35mn
    Bit rate mode : Constant
    Bit rate : 192 Kbps
    Channel(s) : 2 channels
    Channel positions : Front: L R
    Sampling rate : 48.0 KHz
    Bit depth : 16 bits
    Compression mode : Lossy
    Stream size : 132 MiB (9%)
    Title : AC-3; 16 bit 48 Khz; 2.0ch 192 Kbps; CBR
    Language : Russian
    Default : Yes
    Forced : No
    Menu
    00:00:00.000 : ru:1. Вступлениие
    00:04:16.120 : ru:2. Анечка, сестра, брат и мама
    00:10:27.280 : ru:3. Неудачник
    00:19:14.800 : ru:4. "Красавчик!" Соперники
    00:26:50.440 : ru:5. Кузя и Клякса-зебра. Погоня
    00:38:12.160 : ru:6. "Кусок хлеба"
    00:48:17.680 : ru:7. Спокойной ночи малыши
    00:57:27.240 : ru:8. Рыцарь
    01:05:47.240 : ru:9. "Куда подевались кошки?"
    01:11:56.760 : ru:10. "Аферистка!" Землетрясение
    01:20:19.840 : ru:11. Превращения. "Жертвы" землетрясения
    01:30:10.760 : ru:12. Предложение

    Скриншоты

    vs. sourcevs. dvdrip
    http://perectracker.org/viewtopic.php?t=866209
    Скачать .torrent

    Скачать торрент-файл бесплатно и на максимальной скорости!

    Как скачивать? · Что такое торрент? · Рейтинг и ограничения

    !ВНИМАНИЕ!
    Сайт не распространяет и не хранит электронные версии произведений, а занимается лишь лишь предоставлением доступа к создаваемому пользователями каталогу ссылок на торрент-файлы, которые содержат только списки хеш-сумм, убедительная просьба с жалобами обращаться напрямую к пользователю. Файлы для обмена на трекере предоставлены пользователями сайта, и администрация не несёт ответственности за их содержание. Просьба не заливать файлы, защищенные авторскими правами, а также файлы нелегального содержания!


    _________________
    [Профиль] [ЛС]
    Показать сообщения:    
    Ответить на тему

    Текущее время: Сегодня, в 00:17

    Часовой пояс: GMT + 2



    Вы не можете начинать темы
    Вы не можете отвечать на сообщения
    Вы не можете редактировать свои сообщения
    Вы не можете удалять свои сообщения
    Вы не можете голосовать в опросах
    Вы не можете прикреплять файлы к сообщениям
    Вы не можете скачивать файлы