Register  ·  Log in
Forgot password?

  • Царевич Проша (Надежда Кошеверова) [1974, музыкальный фильм, сказка, SATRip]

    Reply to topic
    Author Message


    Post 21-Mar-2015 20:55



    Царевич Проша
    Жанр: музыкальный фильм, сказка
    Год выпуска: 1974
    Продолжительность: 01:24:42
    Режиссёр: Надежда Кошеверова
    В ролях: Сергей Мартынов, Валерий Золотухин, Татьяна Шестакова, Евгений Тиличеев, Валерий Носик, Александр Бениаминов, Татьяна Пельтцер, Сергей Филиппов, Анатолий Абрамов, Георгий Вицин
    Описание: Музыкальная сказка по мотивам русского фольклора.
    Единственный сын царя Ермолая Проша был изгнан отцом из царства за то, что не пожелал рассказать батюшке свой чудной сон. Царь приказал привязать Прошу в лесу и оставить на растерзание диким зверям.
    Качество видео: SATRip
    Формат видео: AVI
    Видео: 704x368 (1.91:1), 25 fps, XviD build 64 ~2267 kbps avg, 0.35 bit/pixel
    Аудио: 48 kHz, AC3 Dolby Digital, 2/0 (L,R) ch, ~192 kbps avg


    Complete name : C:\Users\samsung\Videos\ЦАРЕВИЧ ПРОША SATRip [1974]...avi
    Format : AVI
    Format/Info : Audio Video Interleave
    File size : 1.46 GiB
    Duration : 1h 24mn
    Overall bit rate : 2 469 Kbps
    Writing library : VirtualDub build 35390/release
    ID : 0
    Format : MPEG-4 Visual
    Format profile : Advanced Simple@L5
    Format settings, BVOP : No
    Format settings, QPel : No
    Format settings, GMC : No warppoints
    Format settings, Matrix : Custom
    Codec ID : XVID
    Codec ID/Hint : XviD
    Duration : 1h 24mn
    Bit rate : 2 267 Kbps
    Width : 704 pixels
    Height : 368 pixels
    Display aspect ratio : 1.913
    Frame rate : 25.000 fps
    Color space : YUV
    Chroma subsampling : 4:2:0
    Bit depth : 8 bits
    Scan type : Progressive
    Bits/(Pixel*Frame) : 0.350
    Stream size : 1.34 GiB (92%)
    Writing library : XviD 64
    ID : 1
    Format : AC-3
    Format/Info : Audio Coding 3
    Mode extension : CM (complete main)
    Codec ID : 2000
    Duration : 1h 24mn
    Bit rate mode : Constant
    Bit rate : 192 Kbps
    Channel(s) : 2 channels
    Channel positions : Front: L R
    Sampling rate : 48.0 KHz
    Bit depth : 16 bits
    Stream size : 116 MiB (8%)
    Alignment : Aligned on interleaves
    Interleave, duration : 40 ms (1.00 video frame)
    Interleave, preload duration : 512 ms


    Download .torrent

    Download free and at maximum speed!

    How to Download? · What is a torrent? · Ratings and Limitations

    The site does not extend and does not store electronic(digital) versions of products, and only gives access to a reference catalogue created by users on torrent-files which contain only lists of the hash-sums, the earnest entreaty, with complaints(abuse) to access directly to the user. Files for an exchange on tracker are given by users of a site, and the administration does not bear the responsibility for their maintenance. The request to not fill in the files protected by copyrights, and also files of the illegal maintenance!

    [Profile] [PM]
    Display posts from previous:    
    Reply to topic

    The time now is: Today 15:37

    All times are GMT + 3 Hours

    You cannot post new topics in this forum
    You cannot reply to topics in this forum
    You cannot edit your posts in this forum
    You cannot delete your posts in this forum
    You cannot vote in polls in this forum
    You cannot attach files in this forum
    You cannot download files in this forum