BitTorrentTracker PerecTracker.org
BitTorrentTracker PerecTracker.org
    
Регистрация  ·  Вход
 
 · 
Забыли пароль?

  • Царевич Проша (Надежда Кошеверова) [1974, музыкальный фильм, сказка, SATRip]

    Ответить на тему
     
    Автор Сообщение

    Light

    Создавать темы 21-Мар-2015 19:55

           

    [Цитировать]

    Царевич Проша
    Жанр: музыкальный фильм, сказка
    Год выпуска: 1974
    Продолжительность: 01:24:42
    Режиссёр: Надежда Кошеверова
    В ролях: Сергей Мартынов, Валерий Золотухин, Татьяна Шестакова, Евгений Тиличеев, Валерий Носик, Александр Бениаминов, Татьяна Пельтцер, Сергей Филиппов, Анатолий Абрамов, Георгий Вицин
    Описание: Музыкальная сказка по мотивам русского фольклора.
    Единственный сын царя Ермолая Проша был изгнан отцом из царства за то, что не пожелал рассказать батюшке свой чудной сон. Царь приказал привязать Прошу в лесу и оставить на растерзание диким зверям.
    Семпл: http://multi-up.com/1035665
    Качество видео: SATRip
    Формат видео: AVI
    Видео: 640x336 (1.91:1), 25fps, XviD build 64 ~1092 kbps , 0.20 bit/pixel
    Аудио: 48 kHz, MPEG Layer 3, 2 ch, ~128.00 kbps avg

    MediaInfo

    General
    Complete name : C:\Users\samsung\Videos\ЦАРЕВИЧ ПРОША SATRip (1974)..avi
    Format : AVI
    Format/Info : Audio Video Interleave
    File size : 745 MiB
    Duration : 1h 24mn
    Overall bit rate : 1 230 Kbps
    Writing library : VirtualDub build 35390/release
    Video
    ID : 0
    Format : MPEG-4 Visual
    Format profile : Advanced Simple@L5
    Format settings, BVOP : No
    Format settings, QPel : No
    Format settings, GMC : No warppoints
    Format settings, Matrix : Custom
    Codec ID : XVID
    Codec ID/Hint : XviD
    Duration : 1h 24mn
    Bit rate : 1 092 Kbps
    Width : 640 pixels
    Height : 336 pixels
    Display aspect ratio : 1.905
    Frame rate : 25.000 fps
    Color space : YUV
    Chroma subsampling : 4:2:0
    Bit depth : 8 bits
    Scan type : Progressive
    Bits/(Pixel*Frame) : 0.203
    Stream size : 662 MiB (89%)
    Writing library : XviD 64
    Audio
    ID : 1
    Format : MPEG Audio
    Format version : Version 1
    Format profile : Layer 3
    Codec ID : 55
    Codec ID/Hint : MP3
    Duration : 1h 24mn
    Bit rate mode : Constant
    Bit rate : 128 Kbps
    Channel(s) : 2 channels
    Sampling rate : 48.0 KHz
    Stream size : 77.6 MiB (10%)
    Alignment : Split accross interleaves
    Interleave, duration : 40 ms (1.00 video frame)
    Interleave, preload duration : 500 ms
    Writing library : LAME3.98r
    Encoding settings : -m s -V 4 -q 2 -lowpass 17 -b 128

    Скриншоты

    Скачать .torrent

    Скачать торрент-файл бесплатно и на максимальной скорости!

    Как скачивать? · Что такое торрент? · Рейтинг и ограничения

    !ВНИМАНИЕ!
    Сайт не распространяет и не хранит электронные версии произведений, а занимается лишь лишь предоставлением доступа к создаваемому пользователями каталогу ссылок на торрент-файлы, которые содержат только списки хеш-сумм, убедительная просьба с жалобами обращаться напрямую к пользователю. Файлы для обмена на трекере предоставлены пользователями сайта, и администрация не несёт ответственности за их содержание. Просьба не заливать файлы, защищенные авторскими правами, а также файлы нелегального содержания!


    _________________
    [Профиль] [ЛС]
    Показать сообщения:    
    Ответить на тему

    Текущее время: Сегодня, в 12:29

    Часовой пояс: GMT + 2



    Вы не можете начинать темы
    Вы не можете отвечать на сообщения
    Вы не можете редактировать свои сообщения
    Вы не можете удалять свои сообщения
    Вы не можете голосовать в опросах
    Вы не можете прикреплять файлы к сообщениям
    Вы не можете скачивать файлы