Register  ·  Log in
Forgot password?

  • Смелого пуля боится (Олег Николаевский) [1970, детский военно-приключенческий фильм, DVB]

    Reply to topic
    Author Message


    Post 21-Mar-2015 20:55



    Смелого пуля боится
    Жанр: детский военно-приключенческий фильм
    Год выпуска: 1970
    Продолжительность: 01:20:16
    Режиссёр: Олег Николаевский
    В ролях: Юра Шергин, Саша Довгуль, Ира Родионова, Михаил Чигарёв, Виталий Беляков, Игорь Варпа, Владимир Довейко, Адольф Ильин, Светлана Дидоренко, Даниил Нетребин, Юрий Мельницкий
    Описание: В первые дни Великой Отечественной войны пионерлагерь оказался на оккупированной территории. Пионер Мишка и танкист дядя Вася совершили смелый рейд на танке в тыл врага и освободили пионеров.
    Доп. информация: Запись потока *.ts со спутника EUTELSAT 36A/B, 36° в.д., ремукс в *.mpg программой VideoReDo.
    Качество видео: DVB
    Формат видео: MPEG-PS
    Видео: MPEG Video, 720(768)x576 (4:3), 25,000 кадров/сек, 2 586 Кбит/сек
    Аудио: MPEG Audio, 48,0 КГц, 192 Кбит/сек, 2 канала


    Complete name : D:\Torrent\СМЕЛОГО ПУЛЯ БОИТСЯ (Звезда 36).mpg
    Format : MPEG-PS
    File size : 1.59 GiB
    Duration : 1h 20mn
    Overall bit rate mode : Variable
    Overall bit rate : 2 835 Kbps
    ID : 224 (0xE0)
    Format : MPEG Video
    Format version : Version 2
    Format profile : Main@Main
    Format settings, BVOP : No
    Format settings, Matrix : Custom
    Format settings, GOP : M=1, N=20
    Duration : 1h 20mn
    Bit rate mode : Variable
    Bit rate : 2 586 Kbps
    Maximum bit rate : 15.0 Mbps
    Width : 720 pixels
    Height : 576 pixels
    Display aspect ratio : 4:3
    Frame rate : 25.000 fps
    Standard : PAL
    Color space : YUV
    Chroma subsampling : 4:2:0
    Bit depth : 8 bits
    Scan type : Interlaced
    Scan order : Top Field First
    Compression mode : Lossy
    Bits/(Pixel*Frame) : 0.249
    Stream size : 1.45 GiB (91%)
    ID : 192 (0xC0)
    Format : MPEG Audio
    Format version : Version 1
    Format profile : Layer 2
    Duration : 1h 20mn
    Bit rate mode : Constant
    Bit rate : 192 Kbps
    Channel(s) : 2 channels
    Sampling rate : 48.0 KHz
    Compression mode : Lossy
    Delay relative to video : 1ms
    Stream size : 110 MiB (7%)


    Download .torrent

    Download free and at maximum speed!

    How to Download? · What is a torrent? · Ratings and Limitations

    The site does not extend and does not store electronic(digital) versions of products, and only gives access to a reference catalogue created by users on torrent-files which contain only lists of the hash-sums, the earnest entreaty, with complaints(abuse) to access directly to the user. Files for an exchange on tracker are given by users of a site, and the administration does not bear the responsibility for their maintenance. The request to not fill in the files protected by copyrights, and also files of the illegal maintenance!

    [Profile] [PM]
    Display posts from previous:    
    Reply to topic

    The time now is: Today 18:01

    All times are GMT + 3 Hours

    You cannot post new topics in this forum
    You cannot reply to topics in this forum
    You cannot edit your posts in this forum
    You cannot delete your posts in this forum
    You cannot vote in polls in this forum
    You cannot attach files in this forum
    You cannot download files in this forum