BitTorrentTracker PerecTracker.org
BitTorrentTracker PerecTracker.org
    
Регистрация  ·  Вход
 
 · 
Забыли пароль?

  • Вулкан страстей / Eyjafjallajokull (Александр Коффре / Alexandre Coffre) [2013, Франция, Бельгия, комедия, приключения, BDRip] Dub (R5)

    Ответить на тему
     
    Автор Сообщение

    Light

    Создавать темы 21-Мар-2015 19:55

           

    [Цитировать]

    Вулкан страстей / Eyjafjallajokull-Год выпуска: 2013
    Страна: Франция, Бельгия
    Жанр: комедия, приключения
    Продолжительность: 01:31:53
    Перевод: Профессиональный (полное дублирование) R5
    Cубтитры: нет-Режиссер: Александр Коффре / Alexandre Coffre
    В ролях: Валери Боннетон, Дэни Бун, Дени Меноше, Альберт Дельпи, Беранжер МакНис, Малик Бенталха, Констанс Долле, Мириам Азенкот, Арно Анриет, Ян Сортон
    О фильме: Где бы вы не хотели встретиться со своим бывшим? Только не в соседнем кресле самолета, чтобы пережить вместе длинный перелет. И уж точно не в одной машине, чтобы вопреки исландскому вулкану с непроизносимым названием, пересечь всю Европу. Когда вы страстно ненавидите друг друга, может случиться всякое. И угон самолета, и авария, и побег из полиции и даже... возвращение романтики.-Релиз:
    Автор: kingsize87
    Качество: BDRip (источник: / BD-Remux / 1080p)
    Формат: AVI
    Видео: 720x304 (2.37:1), 24 fps, XviD build 66 ~1807 kbps avg, 0.34 bit/pixel
    Аудио : 48 kHz, AC3 Dolby Digital, 3/2 (L,C,R,l,r) + LFE ch, ~448.00 kbps avg
    Размер: 1488.40 Mb (1/3 DVD-R)
    Скачать: Семпл-

    Кадры из фильма


    -

    Mi

    Формат : AVI
    Формат/Информация : Audio Video Interleave
    Размер файла : 1,45 Гбайт
    Продолжительность : 1 ч. 31 м.
    Общий поток : 2265 Кбит/сек
    Название фильма : Вулкан страстей / Eyjafjallajokull (2013) BDRip
    Режиссёр : kingsize87
    Программа кодирования : VirtualDubMod 1.5.10.2 (build 2540/release)
    Правообладатель : HQCLUB
    Примечание : 21.03.2015
    Видео
    Идентификатор : 0
    Формат : MPEG-4 Visual
    Профиль формата : Advanced Simple@L5
    Параметр BVOP формата : 1
    Параметр QPel формата : Нет
    Параметр GMC формата : Без точки перехода
    Параметр матрицы формата : Выборочная
    Идентификатор кодека : XVID
    Идентификатор кодека/Подсказка : XviD
    Продолжительность : 1 ч. 31 м.
    Битрейт : 1807 Кбит/сек
    Ширина : 720 пикселей
    Высота : 304 пикселя
    Соотношение сторон : 2,35:1
    Частота кадров : 24,000 кадра/сек
    Цветовое пространство : YUV
    Субдискретизация насыщенности : 4:2:0
    Битовая глубина : 8 бит
    Тип развёртки : Прогрессивная
    Метод сжатия : С потерями
    Бит/(Пиксели*Кадры) : 0.344
    Размер потока : 1,16 Гбайт (80%)
    Библиотека кодирования : XviD 66
    Аудио
    Идентификатор : 1
    Формат : AC-3
    Формат/Информация : Audio Coding 3
    Расширение режима : CM (complete main)
    Параметр Endianness формата : Big
    Идентификатор кодека : 2000
    Продолжительность : 1 ч. 31 м.
    Вид битрейта : Постоянный
    Битрейт : 448 Кбит/сек
    Каналы : 6 каналов
    Расположение каналов : Front: L C R, Side: L R, LFE
    Частота : 48,0 КГц
    Битовая глубина : 16 бит
    Метод сжатия : С потерями
    Размер потока : 294 Мбайт (20%)
    Выравнивание : Разделение по промежуткам
    Продолжительность промежутка : 42 мс. (1,00 видеокадр)
    Время предзагрузки промежутка : 500 мс.
    -
    Скачать .torrent

    Скачать торрент-файл бесплатно и на максимальной скорости!

    Как скачивать? · Что такое торрент? · Рейтинг и ограничения

    !ВНИМАНИЕ!
    Сайт не распространяет и не хранит электронные версии произведений, а занимается лишь лишь предоставлением доступа к создаваемому пользователями каталогу ссылок на торрент-файлы, которые содержат только списки хеш-сумм, убедительная просьба с жалобами обращаться напрямую к пользователю. Файлы для обмена на трекере предоставлены пользователями сайта, и администрация не несёт ответственности за их содержание. Просьба не заливать файлы, защищенные авторскими правами, а также файлы нелегального содержания!


    _________________
    [Профиль] [ЛС]
    Показать сообщения:    
    Ответить на тему

    Текущее время: Сегодня, в 05:51

    Часовой пояс: GMT + 2



    Вы не можете начинать темы
    Вы не можете отвечать на сообщения
    Вы не можете редактировать свои сообщения
    Вы не можете удалять свои сообщения
    Вы не можете голосовать в опросах
    Вы не можете прикреплять файлы к сообщениям
    Вы не можете скачивать файлы