BitTorrentTracker PerecTracker.org
BitTorrentTracker PerecTracker.org
    
Регистрация  ·  Вход
 
 · 
Забыли пароль?

  • Ограбление по-американски / American Heist (Сарик Андреасян / Sarik Andreasyan) [2014, США, Россия, триллер, криминал, драма, BDRip] Dub (iTunes)

    Ответить на тему
     
    Автор Сообщение

    Light

    Создавать темы 21-Мар-2015 11:31

           

    [Цитировать]

    Ограбление по-американски / American Heist
    Страна: США, Россия
    Жанр: триллер, криминал, драма
    Год выпуска: 2014
    Продолжительность: 01:34:40
    Перевод: Профессиональный (дублированный) iTunes
    Cубтитры: нет
    Оригинальная аудиодорожка: нет
    Режиссер: Сарик Андреасян / Sarik Andreasyan
    В ролях: Хейден Кристенсен, Эдриан Броуди, Джордана Брюстер, Эйкон, Тори Киттлз, Луис Да Силва мл., Лэнс Э. Николс, Джон МакКоннелл, Джо Крест, Аарон В. Уильямсон
    Описание: У Джеймса темное прошлое, но сейчас он из всех сил пытается изменить свою жизнь — встречается с красивой девушкой, устроился работать автомехаником, мечтает о собственном бизнесе. Тем временем, его старший брат Френки, отсидевший десять лет в тюрьме, выходит на свободу. Френки пытается наладить отношения, но Джеймс не может простить брата за то, что много лет назад он втянул его в криминал, из-за чего Джеймс отсидел шестнадцать месяцев. Однако попытки Джеймса начать новую жизнь не складываются: из-за тюремного прошлого он не может рассчитывать на хорошую работу и получает отказы в кредитовании своего бизнеса. Видя это, Френки предлагает Джеймсу «провести небольшое дельце». Он клянется, что это в последний раз и после ограбления банка в Новом Орлеане у них будут деньги, и они вернут свою жизнь, которую когда-то потеряли. В результате «небольшое дельце» станет одним из самых кровавых и драматических налетов в истории Америки…

    Качество видео: BDRip (Исх. American Heist 2014 1080p BluRay Remux )
    Формат видео: AVI
    Видео: 720x304 (2.37:1), 24 fps, XviD build 73 ~1806 kbps avg, 0.34 bit/pixel
    Аудио: 48 kHz, AC3 Dolby Digital, 3/2 (L,C,R,l,r) + LFE ch, ~384.00 kbps avg

    MediaInfo

    Общее
    Полное имя : S:Ограбление по-американски. 2014. HDRip. 1.45 (AleksSin).avi
    Формат : AVI
    Формат/Информация : Audio Video Interleave
    Размер файла : 1,45 Гбайт
    Продолжительность : 1 ч. 34 м.
    Общий поток : 2199 Кбит/сек
    Программа кодирования : VirtualDubMod 1.5.10.3 | www.virtualdub-fr.org || (build 2550/release)
    Библиотека кодирования : VirtualDubMod build 2550/release
    Видео
    Идентификатор : 0
    Формат : MPEG-4 Visual
    Профиль формата : Advanced Simple@L5
    Параметр BVOP формата : 1
    Параметр QPel формата : Нет
    Параметр GMC формата : Без точки перехода
    Параметр матрицы формата : Выборочная
    Идентификатор кодека : XVID
    Идентификатор кодека/Подсказка : XviD
    Продолжительность : 1 ч. 34 м.
    Битрейт : 1806 Кбит/сек
    Ширина : 720 пикс.
    Высота : 304 пикс.
    Соотношение сторон : 2,35:1
    Частота кадров : 24,000 кадр/сек
    Цветовое пространство : YUV
    Подвыборка цветности : 4:2:0
    Битовая глубина : 8 бит
    Тип развёртки : Прогрессивная
    Метод сжатия : С потерями
    Бит/(Пиксели*Кадры) : 0.344
    Размер потока : 1,19 Гбайт (82%)
    Библиотека кодирования : XviD 73
    Аудио
    Идентификатор : 1
    Формат : AC-3
    Формат/Информация : Audio Coding 3
    Расширение режима : CM (complete main)
    Идентификатор кодека : 2000
    Продолжительность : 1 ч. 34 м.
    Вид битрейта : Постоянный
    Битрейт : 384 Кбит/сек
    Каналы : 6 каналов
    Расположение каналов : Front: L C R, Side: L R, LFE
    Частота : 48,0 КГц
    Битовая глубина : 16 бит
    Метод сжатия : С потерями
    Размер потока : 260 Мбайт (17%)
    Выравнивание : Разделение по промежуткам
    Продолжительность промежутка : 42 мс. (1,00 видеокадр)
    Время предзагрузки промежутка : 500 ms

    Скриншот c названием фильма

    Скриншоты

    Скачать .torrent

    Скачать торрент-файл бесплатно и на максимальной скорости!

    Как скачивать? · Что такое торрент? · Рейтинг и ограничения

    !ВНИМАНИЕ!
    Сайт не распространяет и не хранит электронные версии произведений, а занимается лишь лишь предоставлением доступа к создаваемому пользователями каталогу ссылок на торрент-файлы, которые содержат только списки хеш-сумм, убедительная просьба с жалобами обращаться напрямую к пользователю. Файлы для обмена на трекере предоставлены пользователями сайта, и администрация не несёт ответственности за их содержание. Просьба не заливать файлы, защищенные авторскими правами, а также файлы нелегального содержания!


    _________________
    [Профиль] [ЛС]
    Показать сообщения:    
    Ответить на тему

    Текущее время: Сегодня, в 10:17

    Часовой пояс: GMT + 2



    Вы не можете начинать темы
    Вы не можете отвечать на сообщения
    Вы не можете редактировать свои сообщения
    Вы не можете удалять свои сообщения
    Вы не можете голосовать в опросах
    Вы не можете прикреплять файлы к сообщениям
    Вы не можете скачивать файлы