BitTorrentTracker PerecTracker.org
BitTorrentTracker PerecTracker.org
    
Регистрация  ·  Вход
 
 · 
Забыли пароль?

  • Ночь в музее: Секрет гробницы / Night at the Museum: Secret of the Tomb (Шон Леви / Shawn Levy) [2014, США, Великобритания, Фэнтези, комедия, BDRip 1080p] Dub (Rus, Ukr) + Sub Rus, Ukr, Eng + Original Eng

    Ответить на тему
     
    Автор Сообщение

    Flirldrerve

    Создавать темы 21-Мар-2015 07:20

           

    [Цитировать]

    Ночь в музее: Секрет гробницы / Night at the Museum: Secret of the Tomb
    Страна: США, Великобритания
    Жанр: Фэнтези, комедия
    Год выпуска: 2014
    Продолжительность: 01:37:48
    Перевод: Профессиональный (дублированный)
    Cубтитры: Russian (Forced, Full), Ukrainian, English
    Оригинальная аудиодорожка: английский
    Режиссер: Шон Леви / Shawn Levy
    В ролях: Бен Стиллер, Ребел Уилсон, Робин Уильямс, Рами Малек, Оуэн Уилсон, Дэн Стивенс, Дик Ван Дайк, Бен Кингсли, Рэйчел Харрис, Стив Куган
    Описание: И все-таки не повезло Ларри с работой — того и гляди кто-нибудь да оживет в этом музейном царстве. На сей раз ему придется столкнуться не с Рузвельтом и не с Наполеоном, а практически сойти в преисподнюю, портал в которую открыл фараон Ахкменра, чтобы вызвать своего злобного брата.

    Тип релиза: BDRip 1080p
    Контейнер: MKV
    Видео: MPEG-4 AVC, 15.7 Mбит/с, 1920x1040, 23,976 fps
    Аудио: Russian: 48 kHz, DTS, 3/2 (L,C,R,l,r) + LFE ch, ~768.00 kbps avg
    Аудио 2: Ukrainian: 48 kHz, AC3, 3/2 (L,C,R,l,r) + LFE ch, ~448.00 kbps avg
    Аудио 3: Eng, DTS, 1510 kb/s (6 ch), 48 kHz
    Формат субтитров: softsub (SRT)

    MediaInfo

    x264 info: frame I:1524 Avg QP:15.51 size:256785
    x264 info: frame P:29470 Avg QP:15.81 size:133281
    x264 info: frame B:109715 Avg QP:17.40 size: 67843
    x264 info: consecutive B-frames: 2.0% 3.6% 4.7% 16.5% 19.6% 43.2% 7.9% 1.1% 1.2%
    Format : Matroska
    Format version : Version 4 / Version 2
    File size : 12.8 GiB
    Duration : 1h 37mn
    Overall bit rate : 18.8 Mbps
    Movie name : Ночь в музее_Секрет гробницы. (Tonik)
    Encoded date : UTC 2015-03-11 03:41:28
    Writing application : mkvmerge v7.1.0 ('Good Love') 64bit built on Jul 27 2014 13:06:55
    Writing library : libebml v1.3.0 + libmatroska v1.4.1
    _STATISTICS_WRITING_APP : mkvmerge v7.1.0 ('Good Love') 64bit built on Jul 27 2014 13:06:55
    _STATISTICS_WRITING_DATE_UTC : 2015-03-11 03:41:28
    _STATISTICS_TAGS : BPS DURATION NUMBER_OF_FRAMES NUMBER_OF_BYTES
    DURATION : 01:29:57.875000000
    NUMBER_OF_FRAMES : 1834
    NUMBER_OF_BYTES : 50399
    Video
    ID : 1
    Format : AVC
    Format/Info : Advanced Video Codec
    Format profile : High@L4.1
    Format settings, CABAC : Yes
    Format settings, ReFrames : 4 frames
    Codec ID : V_MPEG4/ISO/AVC
    Duration : 1h 37mn
    Bit rate : 15.7 Mbps
    Width : 1 920 pixels
    Height : 1 040 pixels
    Display aspect ratio : 1.85:1
    Frame rate mode : Constant
    Frame rate : 23.976 fps
    Color space : YUV
    Chroma subsampling : 4:2:0
    Bit depth : 8 bits
    Scan type : Progressive
    Bits/(Pixel*Frame) : 0.327
    Stream size : 10.7 GiB (83%)
    Writing library : x264 core 142 r2431+42 c69a006 tMod [8-bit@all X86_64]
    Encoding settings : cabac=1 / ref=4 / deblock=1:-3:-3 / analyse=0x3:0x133 / me=umh / subme=10 / psy=1 / fade_compensate=0.00 / psy_rd=0.95:0.00 / mixed_ref=1 / me_range=48 / chroma_me=1 / trellis=2 / 8x8dct=1 / cqm=0 / deadzone=21,11 / fast_pskip=1 / chroma_qp_offset=-2 / threads=16 / lookahead_threads=2 / sliced_threads=0 / nr=0 / decimate=1 / interlaced=0 / bluray_compat=0 / constrained_intra=0 / fgo=0 / bframes=8 / b_pyramid=2 / b_adapt=2 / b_bias=0 / direct=3 / weightb=1 / open_gop=0 / weightp=2 / keyint=250 / keyint_min=23 / scenecut=40 / intra_refresh=0 / rc_lookahead=150 / rc=crf / mbtree=0 / crf=17.0000 / qcomp=0.65 / qpmin=0:0:0 / qpmax=69:69:69 / qpstep=4 / vbv_maxrate=50000 / vbv_bufsize=62500 / crf_max=0.0 / nal_hrd=none / filler=0 / ip_ratio=1.20 / pb_ratio=1.20 / aq=4:0.80 / aq-sensitivity=10.00 / aq-factor=1.00:1.00:1.00 / aq2=0 / aq3=0
    Language : English
    Default : Yes
    Forced : No
    DURATION : 01:37:48.738000000
    NUMBER_OF_FRAMES : 140709
    NUMBER_OF_BYTES : 11762494767
    _STATISTICS_WRITING_APP : mkvmerge v7.1.0 ('Good Love') 64bit built on Jul 27 2014 13:06:55
    _STATISTICS_WRITING_DATE_UTC : 2015-03-11 03:41:28
    _STATISTICS_TAGS : BPS DURATION NUMBER_OF_FRAMES NUMBER_OF_BYTES
    Audio #1
    ID : 2
    Format : DTS
    Format/Info : Digital Theater Systems
    Mode : 16
    Format settings, Endianness : Big
    Codec ID : A_DTS
    Duration : 1h 37mn
    Bit rate mode : Constant
    Bit rate : 768 Kbps
    Channel(s) : 6 channels
    Channel positions : Front: L C R, Side: L R, LFE
    Sampling rate : 48.0 KHz
    Bit depth : 24 bits
    Compression mode : Lossy
    Stream size : 537 MiB (4%)
    Language : Russian
    Default : Yes
    Forced : No
    Audio #2
    ID : 3
    Format : AC-3
    Format/Info : Audio Coding 3
    Mode extension : CM (complete main)
    Format settings, Endianness : Big
    Codec ID : A_AC3
    Duration : 1h 37mn
    Bit rate mode : Constant
    Bit rate : 448 Kbps
    Channel(s) : 6 channels
    Channel positions : Front: L C R, Side: L R, LFE
    Sampling rate : 48.0 KHz
    Bit depth : 16 bits
    Compression mode : Lossy
    Stream size : 313 MiB (2%)
    Language : Ukrainian
    Default : No
    Forced : No
    Audio #3
    ID : 4
    Format : DTS
    Format/Info : Digital Theater Systems
    Format profile : ES
    Mode : 16
    Format settings, Endianness : Big
    Codec ID : A_DTS
    Duration : 1h 37mn
    Bit rate mode : Constant
    Bit rate : 1 509 Kbps
    Channel(s) : 6 channels
    Channel positions : Front: L C R, Side: L R, LFE
    Sampling rate : 48.0 KHz
    Bit depth : 24 bits
    Compression mode : Lossy
    Stream size : 1.03 GiB (8%)
    Language : English
    Default : No
    Forced : No
    Text #1
    ID : 5
    Format : UTF-8
    Codec ID : S_TEXT/UTF8
    Codec ID/Info : UTF-8 Plain Text
    Title : Forced
    Language : Russian
    Default : Yes
    Forced : No
    Text #2
    ID : 6
    Format : UTF-8
    Codec ID : S_TEXT/UTF8
    Codec ID/Info : UTF-8 Plain Text
    Language : Russian
    Default : No
    Forced : No
    Text #3
    ID : 7
    Format : UTF-8
    Codec ID : S_TEXT/UTF8
    Codec ID/Info : UTF-8 Plain Text
    Language : Ukrainian
    Default : No
    Forced : No
    Text #4
    ID : 8
    Format : UTF-8
    Codec ID : S_TEXT/UTF8
    Codec ID/Info : UTF-8 Plain Text
    Language : English
    Default : No
    Forced : No
    Text #5
    ID : 9
    Format : UTF-8
    Codec ID : S_TEXT/UTF8
    Codec ID/Info : UTF-8 Plain Text
    Title : SDH
    Language : English
    Default : No
    Forced : No
    Menu
    00:00:00.000 : en:00:00:00.000
    00:04:34.441 : en:00:04:34.441
    00:06:29.347 : en:00:06:29.347
    00:09:10.884 : en:00:09:10.884
    00:13:18.131 : en:00:13:18.131
    00:14:43.132 : en:00:14:43.132
    00:18:01.038 : en:00:18:01.038
    00:19:58.906 : en:00:19:58.906
    00:22:27.388 : en:00:22:27.388
    00:24:47.611 : en:00:24:47.611
    00:26:26.084 : en:00:26:26.084
    00:29:11.583 : en:00:29:11.583
    00:32:03.505 : en:00:32:03.505
    00:35:50.815 : en:00:35:50.815
    00:39:48.761 : en:00:39:48.761
    00:44:14.735 : en:00:44:14.735
    00:51:19.285 : en:00:51:19.285
    00:52:38.530 : en:00:52:38.530
    00:58:00.352 : en:00:58:00.352
    01:01:09.624 : en:01:01:09.624
    01:03:40.275 : en:01:03:40.275
    01:06:44.334 : en:01:06:44.334
    01:08:01.911 : en:01:08:01.911
    01:11:09.640 : en:01:11:09.640
    01:17:08.624 : en:01:17:08.624
    01:21:45.317 : en:01:21:45.317
    01:27:47.512 : en:01:27:47.512
    01:31:28.274 : en:01:31:28.274

    Скриншоты

    Скачать .torrent

    Скачать торрент-файл бесплатно и на максимальной скорости!

    Как скачивать? · Что такое торрент? · Рейтинг и ограничения

    !ВНИМАНИЕ!
    Сайт не распространяет и не хранит электронные версии произведений, а занимается лишь лишь предоставлением доступа к создаваемому пользователями каталогу ссылок на торрент-файлы, которые содержат только списки хеш-сумм, убедительная просьба с жалобами обращаться напрямую к пользователю. Файлы для обмена на трекере предоставлены пользователями сайта, и администрация не несёт ответственности за их содержание. Просьба не заливать файлы, защищенные авторскими правами, а также файлы нелегального содержания!


    _________________
    [Профиль] [ЛС]
    Показать сообщения:    
    Ответить на тему

    Текущее время: Сегодня, в 08:43

    Часовой пояс: GMT + 2



    Вы не можете начинать темы
    Вы не можете отвечать на сообщения
    Вы не можете редактировать свои сообщения
    Вы не можете удалять свои сообщения
    Вы не можете голосовать в опросах
    Вы не можете прикреплять файлы к сообщениям
    Вы не можете скачивать файлы