BitTorrentTracker PerecTracker.org
BitTorrentTracker PerecTracker.org
    
Регистрация  ·  Вход
 
 · 
Забыли пароль?

  • Бёртон и Тейлор / Burton and Taylor (Ричард Лэкстон / Richard Laxton) [2013, Великобритания, биография, драма, HDTV 1080i] MVO (1 канал)

    Ответить на тему
     
    Автор Сообщение

    Flirldrerve

    Создавать темы 21-Мар-2015 07:20

           

    [Цитировать]

    Бёртон и Тейлор / Burton and Taylor
    Страна: Великобритания
    Жанр: биография, драма
    Год выпуска: 2013
    Продолжительность: 01:21:52
    Перевод: Профессиональный (многоголосый закадровый) 1 канал
    Cубтитры: нет
    Оригинальная аудиодорожка: нет
    Режиссер: Ричард Лэкстон / Richard Laxton
    В ролях: Хелена Бонем Картер, Доминик Вест, Ленора Кричлоу, Уильям Хоуп, Майкл Джибсон, Сара Хэдлэнд, Стэнли Таунсенд...
    Описание: После второго развода Ричард Бёртон и Элизабет Тейлор снова встречаются в 1983 году для новой постановки пьесы "Интимная комедия", которая повторяет их собственную историю: состоящие в новых браках, но по-прежнему страстно влюблённые друг в друга, бывшие муж и жена Эллиот и Аманда снова сходятся вместе, погрязая в скандалах. Публика гадает, воссоединится ли звёздная пара Лиз и Дик в третий раз?
    Сэмпл: http://multi-up.com/1038091
    Тип релиза: HDTV 1080i
    Контейнер: TS
    Видео: AVC, 1920x1080 (16/9), 25.000 fps, 9 565 Kbps (0.185 bit/pixel)
    Аудио: MP2, 48.0 KHz, 2 ch, 192 Kbps, CBR (Russian)

    MediaInfo

    Общее
    Идентификатор : 3 (0x3)
    Полное имя : K:\Бертон и Тейлор.ts
    Формат : MPEG-TS
    Размер файла : 6,00 Гбайт
    Продолжительность : 1 ч. 21 м.
    Режим общего битрейта : Переменный
    Общий поток : 10,5 Мбит/сек
    Видео
    Идентификатор : 2141 (0x85D)
    Идентификатор меню : 21004 (0x520C)
    Формат : AVC
    Формат/Информация : Advanced Video Codec
    Профиль формата : Main@L4.0
    Параметр CABAC формата : Да
    Параметр ReFrames формата : 3 кадра
    Идентификатор кодека : 27
    Продолжительность : 1 ч. 21 м.
    Битрейт : 9773 Кбит/сек
    Ширина : 1920 пикселей
    Высота : 1080 пикселей
    Соотношение сторон : 16:9
    Частота кадров : 25,000 кадров/сек
    Стандарт вещания : Component
    Цветовое пространство : YUV
    Субдискретизация насыщенности : 4:2:0
    Битовая глубина : 8 бит
    Тип развёртки : Чересстрочная
    Порядок развёртки : Верхнее поле первое
    Бит/(Пиксели*Кадры) : 0.189
    Размер потока : 5,59 Гбайт (93%)
    Основные цвета : BT.709
    Характеристики трансфера : BT.709
    Коэффициенты матрицы : BT.709
    Аудио
    Идентификатор : 2142 (0x85E)
    Идентификатор меню : 21004 (0x520C)
    Формат : MPEG Audio
    Версия формата : Version 1
    Профиль формата : Layer 2
    Идентификатор кодека : 4
    Продолжительность : 1 ч. 21 м.
    Вид битрейта : Постоянный
    Битрейт : 192 Кбит/сек
    Каналы : 2 канала
    Частота : 48,0 КГц
    Метод сжатия : С потерями
    Задержка видео : -5 мс.
    Размер потока : 112 Мбайт (2%)
    Язык : Russian

    Скриншоты

    Скачать .torrent

    Скачать торрент-файл бесплатно и на максимальной скорости!

    Как скачивать? · Что такое торрент? · Рейтинг и ограничения

    !ВНИМАНИЕ!
    Сайт не распространяет и не хранит электронные версии произведений, а занимается лишь лишь предоставлением доступа к создаваемому пользователями каталогу ссылок на торрент-файлы, которые содержат только списки хеш-сумм, убедительная просьба с жалобами обращаться напрямую к пользователю. Файлы для обмена на трекере предоставлены пользователями сайта, и администрация не несёт ответственности за их содержание. Просьба не заливать файлы, защищенные авторскими правами, а также файлы нелегального содержания!


    _________________
    [Профиль] [ЛС]
    Показать сообщения:    
    Ответить на тему

    Текущее время: Сегодня, в 16:27

    Часовой пояс: GMT + 2



    Вы не можете начинать темы
    Вы не можете отвечать на сообщения
    Вы не можете редактировать свои сообщения
    Вы не можете удалять свои сообщения
    Вы не можете голосовать в опросах
    Вы не можете прикреплять файлы к сообщениям
    Вы не можете скачивать файлы