BitTorrentTracker PerecTracker.org
BitTorrentTracker PerecTracker.org
    
Регистрация  ·  Вход
 
 · 
Забыли пароль?

  • Подарок Мэгги / Gift of the Magi (Лиза Мулкахи / Lisa Mulcahy) [2010, США, драма, HDTV 1080i] MVO

    Ответить на тему
     
    Автор Сообщение

    Flirldrerve

    Создавать темы 21-Мар-2015 07:20

           

    [Цитировать]

    Подарок Мэгги/ Gift of the Magi
    Страна: США
    Жанр: драма
    Год выпуска: 2010
    Продолжительность: 01:21:59
    Перевод: Профессиональный (многоголосый закадровый)
    Cубтитры: нет
    Режиссер: Лиза Мулкахи / Lisa Mulcahy
    В ролях: Марла Соколофф, Марк Веббер, Мишель Бимиш, Глайннис Кассон, Томас Грубе, Гари Хецлер, Имонн Хант, Roisin Kiely, Джерри МакКанн, Бэрри МакГоверн
    Описание: Молодожены Джим и Мэгги живут в тесной квартирке и едва сводят концы с концами. Окончательно их добивает поломка автомобиля. Пара соглашается отказаться от подарков на Рождество в этом году, но в тайне друг для друга они готовят что-то грандиозное.
    Сэмпл: http://rusfolder.com/43213008
    Кинопоиск:

    Тип релиза: HDTV 1080i
    Контейнер: TS
    Видео: AVC/H.264, 1920x1080 (16:9), 5371 Кбит/сек, 25.000 fps
    Аудио: русский, MP2, 2ch, 48,0 КГц, 192 Кбит/сек

    MediaInfo

    General
    ID : 1 (0x1)
    Complete name : D:\Gift of the Magi.ts
    Format : MPEG-TS
    File size : 3.35 GiB
    Duration : 1h 21mn
    Overall bit rate mode : Variable
    Overall bit rate : 5 855 Kbps
    Maximum Overall bit rate : 35.5 Mbps
    Video
    ID : 4113 (0x1011)
    Menu ID : 1 (0x1)
    Format : AVC
    Format/Info : Advanced Video Codec
    Format profile : Main@L4.0
    Format settings, CABAC : Yes
    Format settings, ReFrames : 3 frames
    Codec ID : 27
    Duration : 1h 21mn
    Bit rate mode : Variable
    Bit rate : 5 371 Kbps
    Maximum bit rate : 40.0 Mbps
    Width : 1 920 pixels
    Height : 1 080 pixels
    Display aspect ratio : 16:9
    Frame rate : 25.000 fps
    Standard : Component
    Color space : YUV
    Chroma subsampling : 4:2:0
    Bit depth : 8 bits
    Scan type : Interlaced
    Scan order : Top Field First
    Bits/(Pixel*Frame) : 0.104
    Stream size : 3.08 GiB (92%)
    Audio
    ID : 4352 (0x1100)
    Menu ID : 1 (0x1)
    Format : MPEG Audio
    Format version : Version 1
    Format profile : Layer 2
    Codec ID : 4
    Duration : 1h 21mn
    Bit rate mode : Constant
    Bit rate : 192 Kbps
    Channel(s) : 2 channels
    Sampling rate : 48.0 KHz
    Compression mode : Lossy
    Stream size : 113 MiB (3%)
    Language : Russian

    Скриншот с названием фильма

    Скриншоты

    Скачать .torrent

    Скачать торрент-файл бесплатно и на максимальной скорости!

    Как скачивать? · Что такое торрент? · Рейтинг и ограничения

    !ВНИМАНИЕ!
    Сайт не распространяет и не хранит электронные версии произведений, а занимается лишь лишь предоставлением доступа к создаваемому пользователями каталогу ссылок на торрент-файлы, которые содержат только списки хеш-сумм, убедительная просьба с жалобами обращаться напрямую к пользователю. Файлы для обмена на трекере предоставлены пользователями сайта, и администрация не несёт ответственности за их содержание. Просьба не заливать файлы, защищенные авторскими правами, а также файлы нелегального содержания!


    _________________
    [Профиль] [ЛС]
    Показать сообщения:    
    Ответить на тему

    Текущее время: Сегодня, в 10:33

    Часовой пояс: GMT + 2



    Вы не можете начинать темы
    Вы не можете отвечать на сообщения
    Вы не можете редактировать свои сообщения
    Вы не можете удалять свои сообщения
    Вы не можете голосовать в опросах
    Вы не можете прикреплять файлы к сообщениям
    Вы не можете скачивать файлы