BitTorrentTracker PerecTracker.org
BitTorrentTracker PerecTracker.org
    
Регистрация  ·  Вход
 
 · 
Забыли пароль?

  • Роковое наследство (Евгений Лаврентьев) [2014, Россия, мелодрама, HDTV 1080i]

    Ответить на тему
     
    Автор Сообщение

    rechyn

    Создавать темы 21-Мар-2015 07:19

           

    [Цитировать]

    Роковое наследство
    Год выпуска: 2014
    Производство: Россия, Кинокомпания "Производство Впечатлений"
    Жанр: Мелодрама
    Продолжительность: ~ 01:30:14
    Субтитры: нет
    Режиссёр: Евгений Лаврентьев
    В ролях: Денис Матросов, Елена Лагута, Николай Сахаров, Наталья Гудкова, Олег Осипов (II), Светлана Немоляева, Марк Муравьев, Валерия Богук, Юрий Никулин (II), Владимир Лактионов, Елена Пусторамова
    Описание: Умирает известный бизнесмен, промышленник и предприниматель, 70-летний уважаемый человек. Двое его сыновей и вдова уверены, что нет никакого завещания, что им, как это бывает в таких случаях, достанется по одной трети состояния умершего.Неожиданно выясняется, что завещание существует, и одной из главных наследниц в нем указана Настя, жена младшего брата, девушка, которая живет в стороне от семейных дел и сама совершенно шокирована таким поворотом событий.Настя говорит, что не знает причины неожиданного решения покойного бизнесмена Казанцева. Роковое наследство переворачивает такую, казалось бы, устойчивую семейную жизнь…

    Качество: HDTV 1080i
    Контейнер: TS
    Видео: MPEG4 Video (H264) 1920x1080, ~ 6508 Кбит/сек, 25.00fps 0.126 bit/pixel
    Аудио: MP2, 2 ch, 48,0 КГц, 256 Кбит/с
    Сторонней рекламы нет!

    MediaInfo

    ОбщееИдентификатор : 1 (0x1)Полное имя : F:\Фильмы торренты\Rokovoe.nasledstvo.2014.HDTV.(1080i).MediaClub\Rokovoe.nasledstvo.(02.seriya.iz.02).2014.HDTV.(1080i).MediaClub.tsФормат : MPEG-TSРазмер файла : 2,24 ГбайтПродолжительность : 44 м.Режим общего битрейта : ПеременныйОбщий поток : 7119 Кбит/сек
    ВидеоИдентификатор : 306 (0x132)Идентификатор меню : 1 (0x1)Формат : AVCФормат/Информация : Advanced Video CodecПрофиль формата : High@L4.0Параметр CABAC формата : ДаПараметр ReFrames формата : 4 кадраИдентификатор кодека : 27Продолжительность : 44 м.Битрейт : 6508 Кбит/секШирина : 1920 пикселейВысота : 1080 пикселейСоотношение сторон : 16:9Частота кадров : 25,000 кадров/секСтандарт вещания : ComponentЦветовое пространство : YUVСубдискретизация насыщенности : 4:2:0Битовая глубина : 8 битТип развёртки : ЧересстрочнаяПорядок развёртки : Верхнее поле первоеБит/(Пиксели*Кадры) : 0.126Размер потока : 2,04 Гбайт (91%)Основные цвета : BT.709Характеристики трансфера : BT.709Коэффициенты матрицы : BT.709
    АудиоИдентификатор : 406 (0x196)Идентификатор меню : 1 (0x1)Формат : MPEG AudioВерсия формата : Version 1Профиль формата : Layer 2Идентификатор кодека : 3Продолжительность : 44 м.Вид битрейта : ПостоянныйБитрейт : 256 Кбит/секКаналы : 2 каналаЧастота : 48,0 КГцМетод сжатия : С потерямиРазмер потока : 82,4 Мбайт (4%)Язык : English
    Раздача группы:
    Запись:
    Отдельное спасибо wowa63 за предоставление материала.

    Скриншот c названием фильма

    Скриншоты

    Скачать .torrent

    Скачать торрент-файл бесплатно и на максимальной скорости!

    Как скачивать? · Что такое торрент? · Рейтинг и ограничения

    !ВНИМАНИЕ!
    Сайт не распространяет и не хранит электронные версии произведений, а занимается лишь лишь предоставлением доступа к создаваемому пользователями каталогу ссылок на торрент-файлы, которые содержат только списки хеш-сумм, убедительная просьба с жалобами обращаться напрямую к пользователю. Файлы для обмена на трекере предоставлены пользователями сайта, и администрация не несёт ответственности за их содержание. Просьба не заливать файлы, защищенные авторскими правами, а также файлы нелегального содержания!


    _________________
    [Профиль] [ЛС]
    Показать сообщения:    
    Ответить на тему

    Текущее время: Сегодня, в 19:03

    Часовой пояс: GMT + 2



    Вы не можете начинать темы
    Вы не можете отвечать на сообщения
    Вы не можете редактировать свои сообщения
    Вы не можете удалять свои сообщения
    Вы не можете голосовать в опросах
    Вы не можете прикреплять файлы к сообщениям
    Вы не можете скачивать файлы