BitTorrentTracker PerecTracker.org
BitTorrentTracker PerecTracker.org
    
Регистрация  ·  Вход
 
 · 
Забыли пароль?

  • Про жену, мечту и еще одну… (Александр Поженский) [2013, Россия, ироническая полукомедия, мелодрама, HDTV 1080i]

    Ответить на тему
     
    Автор Сообщение

    rechyn

    Создавать темы 21-Мар-2015 07:19

           

    [Цитировать]

    Про жену, мечту и еще одну…
    Жанр: Эроническая полукомедия
    Год выпуска: 2013
    Продолжительность: 01:11:33
    Режиссёр: Александр Поженский
    В ролях: Константин Юшкевич, Александра Куликова, Александр Поженский.
    Описание: 9 мая 2013 года. Свидание. Он и она. Герои и не подозревают, что в параллельном мире у них есть другая жизнь. Чудесная жизнь, где удачно сложилось то, чего им так не хватает сегодня…

    Качество видео:HDTV 1080i
    Формат видео: .mkv
    Видео:5261 Кбит/с, 1920x1080, 25 кадр/сек
    Аудио: 48 kHz, AC3, 6 ch, 448 Кбит/с
    Сеэмпл : https://www.sendspace.com/file/gtixrw

    MediaInfo

    Общее
    Уникальный идентификатор : 230443773478846511313039868137956509037 (0xAD5DDB3BFC2F6917AE33657FC165056D)
    Полное имя : C:\Про жену, мечту и еще одну… (2013) HDTV 1080i -BLUEBIRD\PRO.ZENU.2013.HDTV.BLUEBIRD.mkv
    Формат : Matroska
    Версия формата : Version 4 / Version 2
    Размер файла : 2,91 Гбайт
    Продолжительность : 1 ч. 11 м.
    Общий поток : 5825 Кбит/сек
    Дата кодирования : UTC 2015-01-17 06:10:22
    Программа кодирования : mkvmerge v7.4.0 ('Circles') 64bit built on Dec 12 2014 12:19:56
    Библиотека кодирования : libebml v1.3.0 + libmatroska v1.4.1
    DURATION : 01:11:28.960000000
    NUMBER_OF_FRAMES : 134030
    NUMBER_OF_BYTES : 240181760
    _STATISTICS_WRITING_APP : mkvmerge v7.4.0 ('Circles') 64bit built on Dec 12 2014 12:19:56
    _STATISTICS_WRITING_DATE_UTC : 2015-01-17 06:10:22
    _STATISTICS_TAGS : BPS DURATION NUMBER_OF_FRAMES NUMBER_OF_BYTES
    Видео
    Идентификатор : 1
    Формат : AVC
    Формат/Информация : Advanced Video Codec
    Профиль формата : High@L4.0
    Параметр CABAC формата : Да
    Параметр ReFrames формата : 4 кадра
    Параметр GOP формата : M=4, N=28
    Идентификатор кодека : V_MPEG4/ISO/AVC
    Продолжительность : 1 ч. 11 м.
    Битрейт : 5261 Кбит/сек
    Ширина : 1920 пикселей
    Высота : 1080 пикселей
    Соотношение сторон : 16:9
    Режим частоты кадров : Постоянный
    Частота кадров : 25,000 кадров/сек
    Стандарт вещания : Component
    Цветовое пространство : YUV
    Субдискретизация насыщенности : 4:2:0
    Битовая глубина : 8 бит
    Тип развёртки : Чересстрочная
    Порядок развёртки : Верхнее поле первое
    Бит/(Пиксели*Кадры) : 0.101
    Размер потока : 2,63 Гбайт (90%)
    Default : Да
    Forced : Нет
    Основные цвета : BT.709
    Характеристики трансфера : BT.709
    Коэффициенты матрицы : BT.709
    Аудио
    Идентификатор : 2
    Формат : AC-3
    Формат/Информация : Audio Coding 3
    Расширение режима : CM (complete main)
    Параметр Endianness формата : Big
    Идентификатор кодека : A_AC3
    Продолжительность : 1 ч. 11 м.
    Вид битрейта : Постоянный
    Битрейт : 448 Кбит/сек
    Каналы : 6 каналов
    Расположение каналов : Front: L C R, Side: L R, LFE
    Частота : 48,0 КГц
    Битовая глубина : 16 бит
    Метод сжатия : С потерями
    Задержка видео : 18 мс.
    Размер потока : 229 Мбайт (8%)
    Язык : Russian
    Default : Да
    Forced : Нет

    Скриншоты

    Скачать .torrent

    Скачать торрент-файл бесплатно и на максимальной скорости!

    Как скачивать? · Что такое торрент? · Рейтинг и ограничения

    !ВНИМАНИЕ!
    Сайт не распространяет и не хранит электронные версии произведений, а занимается лишь лишь предоставлением доступа к создаваемому пользователями каталогу ссылок на торрент-файлы, которые содержат только списки хеш-сумм, убедительная просьба с жалобами обращаться напрямую к пользователю. Файлы для обмена на трекере предоставлены пользователями сайта, и администрация не несёт ответственности за их содержание. Просьба не заливать файлы, защищенные авторскими правами, а также файлы нелегального содержания!


    _________________
    [Профиль] [ЛС]
    Показать сообщения:    
    Ответить на тему

    Текущее время: Сегодня, в 04:03

    Часовой пояс: GMT + 2



    Вы не можете начинать темы
    Вы не можете отвечать на сообщения
    Вы не можете редактировать свои сообщения
    Вы не можете удалять свои сообщения
    Вы не можете голосовать в опросах
    Вы не можете прикреплять файлы к сообщениям
    Вы не можете скачивать файлы