Register  ·  Log in
Forgot password?

  • Отпуск летом (Артем Насыбулин) [2015, Россия, Мелодрама, HDTV 1080i]

    Reply to topic
    Author Message


    Post 21-Mar-2015 08:19



    Отпуск летом
    Год выпуска: 2014
    Производство: Россия, студия Жар-Птица
    Жанр: Мелодрама
    Продолжительность: 01:30:14
    Субтитры: нет
    Режиссёр: Артем Насыбулин
    В ролях: Светлана Тимофеева-Летуновская, Александр Дьяченко, Ксения Разина, Валерий Новиков, Екатерина Семёнова
    Описание: Скромная сотрудница регистратуры поликлиники, мать-одиночка бальзаковского возраста, никогда не бывшая замужем, выиграла в лотерею две недели отдыха в роскошном отеле. Это был ее первый летний отпуск за много лет. Анна Петровна и подумать не могла, что этот отпуск круто изменит ее саму и всю ее жизнь…

    Качество: HDTV 1080i
    Контейнер: TS
    Видео: MPEG4 Video (H264) 1920x1080, ~ 7902 Кбит/сек, 25.00fps 0.152 bit/pixel
    Аудио: MP2, 2 ch, 48,0 КГц, 192 Кбит/с
    Сторонней рекламы нет!


    ID : 1 (0x1)
    Complete name : Otpusk.letom.2014.HDTV.1080i.ts
    Format : MPEG-TS
    File size : 5.41 GiB
    Duration : 1h 30mn
    Overall bit rate mode : Variable
    Overall bit rate : 8 517 Kbps
    ID : 2911 (0xB5F)
    Menu ID : 1028 (0x404)
    Format : AVC
    Format/Info : Advanced Video Codec
    Format profile : High@L4.0
    Format settings, CABAC : Yes
    Format settings, ReFrames : 4 frames
    Codec ID : 27
    Duration : 1h 30mn
    Bit rate : 7 902 Kbps
    Width : 1 920 pixels
    Height : 1 080 pixels
    Display aspect ratio : 16:9
    Frame rate : 25.000 fps
    Color space : YUV
    Chroma subsampling : 4:2:0
    Bit depth : 8 bits
    Scan type : MBAFF
    Bits/(Pixel*Frame) : 0.152
    Stream size : 5.02 GiB (93%)
    ID : 2912 (0xB60)
    Menu ID : 1028 (0x404)
    Format : MPEG Audio
    Format version : Version 1
    Format profile : Layer 2
    Mode : Joint stereo
    Mode extension : Intensity Stereo + MS Stereo
    Codec ID : 3
    Duration : 1h 30mn
    Bit rate mode : Constant
    Bit rate : 192 Kbps
    Channel count : 2 channels
    Sampling rate : 48.0 KHz
    Compression mode : Lossy
    Stream size : 125 MiB (2%)
    Language : Russian
    Раздача группы:
    Отдельное спасибо daboen за предоставление материала.

    Скриншот c названием фильма


    Download .torrent

    Download free and at maximum speed!

    How to Download? · What is a torrent? · Ratings and Limitations

    The site does not extend and does not store electronic(digital) versions of products, and only gives access to a reference catalogue created by users on torrent-files which contain only lists of the hash-sums, the earnest entreaty, with complaints(abuse) to access directly to the user. Files for an exchange on tracker are given by users of a site, and the administration does not bear the responsibility for their maintenance. The request to not fill in the files protected by copyrights, and also files of the illegal maintenance!

    [Profile] [PM]
    Display posts from previous:    
    Reply to topic

    The time now is: Today 12:48

    All times are GMT + 3 Hours

    You cannot post new topics in this forum
    You cannot reply to topics in this forum
    You cannot edit your posts in this forum
    You cannot delete your posts in this forum
    You cannot vote in polls in this forum
    You cannot attach files in this forum
    You cannot download files in this forum