BitTorrentTracker PerecTracker.org
BitTorrentTracker PerecTracker.org
    
Регистрация  ·  Вход
 
 · 
Забыли пароль?

  • Простить за всё (Павел Снисаренко) [2015, Россия, мелодрама, HDTV 1080i]

    Ответить на тему
     
    Автор Сообщение

    rechyn

    Создавать темы 21-Мар-2015 07:19

           

    [Цитировать]

    Простить за всё
    Год выпуска: 2015
    Жанр: Мелодрама
    Производство: Россия, Паламеда Продакшн
    Продолжительность: 01:30:50
    Субтитры: нет
    Режиссёр: Павел Снисаренко
    В ролях: Марина Денисова, Андрей Фролов, Николай Иванов, Маша Мацель, Олеся Грибок
    Описание: Муж Михаил не сделал Анну счастливой. Он пропадает вечерами, приходит нетрезвым. Жизнь Анны катится под откос. Но всё меняется, когда в школу, где Анна работает учителем, приходит новый учитель ОБЖ Андрей. Когда-то Анна и Андрей любили друг друга, но Анна уже много лет считает, что Андрея нет в живых. Анна оскорблена: если бы Андрей нашел возможность сообщить ей, что он жив, её жизнь могла бы быть счастливой. А тем временем Михаил втягивает Анну в серьёзные неприятности. И помочь ей может только один человек — Андрей. Но для того, чтобы это произошло, надо превозмочь свою гордость и простить за всё…

    Качество: HDTV 1080i
    Контейнер: TS
    Видео: MPEG4 Video (H264) 1920x1080, ~ 7862 Кбит/сек, 25.00fps 0.152 bit/pixel
    Аудио: MP2, 2 ch, 48,0 КГц, 256 Кбит/с
    Сторонней рекламы нет!

    MediaInfo

    Общее
    Идентификатор : 1 (0x1)
    Полное имя : F:\Prostit.za.vsё.2015.HDTV.(1080i).MediaClub.ts
    Формат : MPEG-TS
    Размер файла : 5,46 Гбайт
    Продолжительность : 1 ч. 31 м.
    Общий поток : 8543 Кбит/сек
    Видео
    Идентификатор : 2911 (0xB5F)
    Идентификатор меню : 1009 (0x3F1)
    Формат : AVC
    Формат/Информация : Advanced Video Codec
    Профиль формата : High@L4.0
    Параметр CABAC формата : Да
    Параметр ReFrames формата : 4 кадра
    Параметры GOP формата : M=1, N=41
    Идентификатор кодека : 27
    Продолжительность : 1 ч. 31 м.
    Битрейт : 7862 Кбит/сек
    Ширина : 1920 пикс.
    Высота : 1080 пикс.
    Соотношение сторон : 16:9
    Частота кадров : 25,000 кадр/сек
    Цветовое пространство : YUV
    Подвыборка цветности : 4:2:0
    Битовая глубина : 8 бит
    Тип развёртки : MBAFF
    Бит/(Пиксели*Кадры) : 0.152
    Размер потока : 5,02 Гбайт (92%)
    Аудио
    Идентификатор : 2912 (0xB60)
    Идентификатор меню : 1009 (0x3F1)
    Формат : MPEG Audio
    Версия формата : Version 1
    Профиль формата : Layer 2
    Идентификатор кодека : 3
    Продолжительность : 1 ч. 31 м.
    Вид битрейта : Постоянный
    Битрейт : 256 Кбит/сек
    Каналы : 2 канала
    Частота : 48,0 КГц
    Метод сжатия : С потерями
    Размер потока : 168 Мбайт (3%)
    Язык : Russian
    Раздача группы:
    Отдельное спасибо nikolspup за предоставление материала.

    Скриншот c названием фильма

    Скриншоты

    Скачать .torrent

    Скачать торрент-файл бесплатно и на максимальной скорости!

    Как скачивать? · Что такое торрент? · Рейтинг и ограничения

    !ВНИМАНИЕ!
    Сайт не распространяет и не хранит электронные версии произведений, а занимается лишь лишь предоставлением доступа к создаваемому пользователями каталогу ссылок на торрент-файлы, которые содержат только списки хеш-сумм, убедительная просьба с жалобами обращаться напрямую к пользователю. Файлы для обмена на трекере предоставлены пользователями сайта, и администрация не несёт ответственности за их содержание. Просьба не заливать файлы, защищенные авторскими правами, а также файлы нелегального содержания!


    _________________
    [Профиль] [ЛС]
    Показать сообщения:    
    Ответить на тему

    Текущее время: Сегодня, в 00:00

    Часовой пояс: GMT + 2



    Вы не можете начинать темы
    Вы не можете отвечать на сообщения
    Вы не можете редактировать свои сообщения
    Вы не можете удалять свои сообщения
    Вы не можете голосовать в опросах
    Вы не можете прикреплять файлы к сообщениям
    Вы не можете скачивать файлы