BitTorrentTracker PerecTracker.org
BitTorrentTracker PerecTracker.org
    
Регистрация  ·  Вход
 
 · 
Забыли пароль?

  • Княжество / Наследство / Heritage / Ksiestwo (Анджей Бараньский / Andrzej Baranski) [2011, Польша, драма, HDTVRip] VO + Sub Rus (Professor) + Original Pol

    Ответить на тему
     
    Автор Сообщение

    Light

    Создавать темы 21-Мар-2015 07:19

           

    [Цитировать]

    Княжество / Наследство / Heritage / Ksiestwo
    Страна: Польша
    Жанр: драма
    Год выпуска: 2011
    Продолжительность: 01:59:29-Перевод: одноголосый закадровый
    Cубтитры: русские Professor
    Оригинальная аудиодорожка: польский-Режиссер: Анджей Бараньский / Andrzej Baranski-В ролях: Рафал Заверуха, Михал Аньол, Альдона Янковская, Ян Войтыньский, Гжегош Громек, Эдвард Кушталь, Дорота Пясецкая-Описание: Цельный, добротно сделанный, ритмичный фильм, поставленный по мотивам автобиографической повести польского писателя Збигнева Мастернака "Княжество. Трилогия молодости".
    Главный герой фильма - молодой парень Збышек. Он напоминает типажи социалистического кинематографа 60-70-х годов: герой, с повышенными запросами к жизни, постоянно попадающий в нелепые ситуации. Быть может, поэтому фильм снят в черно-белой ретро-стилистике. Итак, Польша, 90-е годы прошлого века. Герой фильма - Збышек, находится на жизненном распутье. Когда его блестяще начинавшаяся футбольная карьера рушится из-за подлого фола завистника, он решает покинуть родную деревню и отправиться в город на учебу. Но частью из-за бедности (элементарно не хватало средств на учебу), а частью из-за сложностей с адаптацией к новой среде, у Збышека и здесь ничего не получается. Он заваливает экзамены на юрфаке и прощается с краковским университетом. Боясь сообщить матери о том, что все деньги на учебу оказались потрачены впустую, Збышек остается в городе, где перебивается случайными, а часто и незаконными, заработками, помогая украинской мафии сбывать поддельные телефонные карты. Но и этих средств недостаточно для выживания, и Збышек в отчаянии возвращается в деревенскую глухомань. На дворе лето, а поэтому лишних вопросов об учебе ему никто задавать не станет. В деревне за Збышеком давно закрепилось презрительное прозвище "Князь", поскольку ему интересны только книги и футбол, а повседневная жизнь крестьянина абсолютно чужда. Збышек уже не крестьянин, но еще не интеллигент. Он находится между двумя мирами, и ни одному из них не принадлежит. В каждом чувствует себя чужим. Внутренний кризис особо тяжело переживается главным героем потому, что ему с детства отец прививал мысль о том, что он является наследником древнего и великого княжеского рода...-Доп. информация:
    -

    Награды

    Фестиваль Złote Kaczki 2012. 5 номинаций: лучший фильм (Анджей Бараньский), лучший актер (Михал Аньол), лучший актер (Михал Заверуха), лучший сценарий (Анджей Бараньский), лучший оператор (Яцек Петрыцкий)
    Фестиваль Nowe Horyzonty 2011. 1 номинация: лучший фильм.
    МКФ в Карловых Варах 2011. 1 номинация: Хрустальный глобус (Анджей Бараньский)
    -Сэмпл: https://www.sendspace.com/file/akqcdm-Качество видео: HDTVRip
    Формат видео: AVI-Видео: DivX 5, 720х400, 16:9, 25.000 fps, 2 198 Kbps
    Аудио1: AC-3, 44.1 KHz, 448 Kbps, 6 channels, русская
    Аудио2: AC-3, 48.0 KHz, 384 Kbps, 6 channels, польская
    Формат субтитров: softsub (SRT)

    MediaInfo

    Общее
    Полное имя : Ksiestwo.2011.HDTV.RU.720p.avi
    Формат : AVI
    Формат/Информация : Audio Video Interleave
    Профиль формата : OpenDML
    Размер файла : 2,54 Гбайт
    Продолжительность : 1 ч. 59 м.
    Общий поток : 3047 Кбит/сек
    Программа кодирования : VirtualDubMod 1.5.10.3 | www.virtualdub-fr.org || (build 2550/release)
    Библиотека кодирования : VirtualDubMod build 2550/release
    Видео
    Идентификатор : 0
    Формат : MPEG-4 Visual
    Параметр BVOP формата : 1
    Параметр QPel формата : Нет
    Параметр GMC формата : Без точки перехода
    Параметр матрицы формата : Default (H.263)
    Идентификатор кодека : DX50
    Идентификатор кодека/Подсказка : DivX 5
    Продолжительность : 1 ч. 59 м.
    Битрейт : 2198 Кбит/сек
    Ширина : 720 пикселей
    Высота : 400 пикселей
    Соотношение сторон : 16:9
    Частота кадров : 25,000 кадров/сек
    Цветовое пространство : YUV
    Субдискретизация насыщенности : 4:2:0
    Битовая глубина : 8 бит
    Тип развёртки : Прогрессивная
    Метод сжатия : С потерями
    Бит/(Пиксели*Кадры) : 0.305
    Размер потока : 1,83 Гбайт (72%)
    Библиотека кодирования : DivX 2682
    Аудио #1
    Идентификатор : 1
    Формат : AC-3
    Формат/Информация : Audio Coding 3
    Расширение режима : CM (complete main)
    Параметр Endianness формата : Big
    Идентификатор кодека : 2000
    Продолжительность : 1 ч. 59 м.
    Вид битрейта : Постоянный
    Битрейт : 448 Кбит/сек
    Каналы : 6 каналов
    Расположение каналов : Front: L C R, Side: L R, LFE
    Частота : 44,1 КГц
    Битовая глубина : 16 бит
    Метод сжатия : С потерями
    Размер потока : 383 Мбайт (15%)
    Выравнивание : Разделение по промежуткам
    Продолжительность промежутка : 40 мс. (1,00 видеокадр)
    Время предзагрузки промежутка : 500 мс.
    Аудио #2
    Идентификатор : 2
    Формат : AC-3
    Формат/Информация : Audio Coding 3
    Расширение режима : CM (complete main)
    Параметр Endianness формата : Big
    Идентификатор кодека : 2000
    Продолжительность : 1 ч. 59 м.
    Вид битрейта : Постоянный
    Битрейт : 384 Кбит/сек
    Каналы : 6 каналов
    Расположение каналов : Front: L C R, Side: L R, LFE
    Частота : 48,0 КГц
    Битовая глубина : 16 бит
    Метод сжатия : С потерями
    Размер потока : 328 Мбайт (13%)
    Выравнивание : Разделение по промежуткам
    Продолжительность промежутка : 40 мс. (1,00 видеокадр)
    Время предзагрузки промежутка : 500 мс.

    Скриншот c названием фильма

    Скриншоты

    Пример субтитров

    1025
    01:31:03,789 --> 01:31:08,202
    Ты должен проставиться.
    Чтобы счастливо тут жилось.
    1026
    01:31:10,686 --> 01:31:12,298
    Я бы тоже выпил...
    1027
    01:31:13,052 --> 01:31:15,420
    ...но, ты видишь, дядя, не на что...
    1028
    01:31:15,789 --> 01:31:18,180
    Поставишь, когда сможешь.
    1029
    01:31:18,690 --> 01:31:21,894
    И чтобы ты закончил учебу... это право...
    1030
    01:31:23,393 --> 01:31:25,469
    С этого будешь при деньгах.
    1031
    01:31:25,877 --> 01:31:27,460
    Сегодня я ставлю.
    1032
    01:31:27,949 --> 01:31:30,260
    А ты - пойдешь в магазин.
    1033
    01:31:30,652 --> 01:31:34,080
    - Хорошо.
    - Где-то тут был кошелек.
    1034
    01:31:43,570 --> 01:31:46,686
    Ведь тут нет воров?
    Где мой кошелек?
    1035
    01:31:47,486 --> 01:31:50,581
    У меня еще никогда в этом доме
    ничего не пропадало!
    1036
    01:31:51,557 --> 01:31:53,882
    Поищи еще, должен найтись.
    1037
    01:31:54,370 --> 01:31:55,591
    Я везде искал.
    1038
    01:31:56,340 --> 01:31:58,063
    Кроме твоих карманов.
    1039
    01:31:58,197 --> 01:32:01,023
    Не будешь лазать в моих карманах!
    Я не крал ничего!
    1040
    01:32:01,132 --> 01:32:04,016
    Украл. Видать, правду говорят...
    1041
    01:32:04,795 --> 01:32:07,166
    ...яблоко от яблони
    недалеко падает.
    1042
    01:32:07,418 --> 01:32:11,086
    Отец - пьяница, сын - вор.
    Вор ты, слышишь?
    1043
    01:32:11,410 --> 01:32:13,343
    Не юрист.
    1044
    01:32:14,812 --> 01:32:17,180
    - Если б ты не был моим дядей...
    - То что?
    1045
    01:32:17,886 --> 01:32:20,340
    Избил бы меня? Убил?
    1046
    01:32:21,149 --> 01:32:23,580
    Вор и бандит, не юрист.
    Скачать .torrent

    Скачать торрент-файл бесплатно и на максимальной скорости!

    Как скачивать? · Что такое торрент? · Рейтинг и ограничения

    !ВНИМАНИЕ!
    Сайт не распространяет и не хранит электронные версии произведений, а занимается лишь лишь предоставлением доступа к создаваемому пользователями каталогу ссылок на торрент-файлы, которые содержат только списки хеш-сумм, убедительная просьба с жалобами обращаться напрямую к пользователю. Файлы для обмена на трекере предоставлены пользователями сайта, и администрация не несёт ответственности за их содержание. Просьба не заливать файлы, защищенные авторскими правами, а также файлы нелегального содержания!


    _________________
    [Профиль] [ЛС]
    Показать сообщения:    
    Ответить на тему

    Текущее время: Сегодня, в 16:15

    Часовой пояс: GMT + 2



    Вы не можете начинать темы
    Вы не можете отвечать на сообщения
    Вы не можете редактировать свои сообщения
    Вы не можете удалять свои сообщения
    Вы не можете голосовать в опросах
    Вы не можете прикреплять файлы к сообщениям
    Вы не можете скачивать файлы