BitTorrentTracker PerecTracker.org
BitTorrentTracker PerecTracker.org
    
Регистрация  ·  Вход
 
 · 
Забыли пароль?

  • Моя любимая мумия / Dummie de Mummie (Пим ван Хуве / Pim van Hoeve) [2014, Нидерланды, детский, приключения, DVDRip] VO (Мегапыхарь)

    Ответить на тему
     
    Автор Сообщение

    Light

    Создавать темы 21-Мар-2015 03:07

           

    [Цитировать]

    Моя любимая мумия / Dummie de Mummie
    Страна: Нидерланды
    Жанр: детский, приключения
    Год выпуска: 2014
    Продолжительность: 01:16:30
    Перевод: Одноголосый закадровый (Мегапыхарь)
    Cубтитры: нет
    Режиссер: Пим ван Хуве / Pim van Hoeve
    В ролях: Юлиан Рас, Руланд Фернхаут, Яхья Гайр, Тон Кас, Наоми Таренскен
    Описание: В провинциальный музей привозят самую настоящую египетскую мумию. Когда в нее попадает молния, мумия благополучно оживает и отправляется исследовать окрестности. Вскоре она встречает местного школьника, они становятся друзьями и у них начинается жутко увлекательная жизнь.
    Доп. информация: Поначалу фильм честно притворяется универсальной детской сказкой. Нереально красивая, игрушечная Голландия с маленькими домиками и ветряными мельницами. Феерия юмора, вся жизнь — бесконечные каникулы.
    Но, перевалив за середину, фильм резко меняется. На место комедии приходит мелодрама, которая начинает выжимать из зрителя слезу. Конечно, финал будет счастливым, но очень впечатлительным и маленьким детям лучше от просмотра воздержаться.
    Приз зрительских симпатий в рамках программы «Современное семейное кино» Фестиваля фильмов для детей и юношества в Амстердаме.
    Номинация на премию Нидерландской Киноакадемии в категории «Лучший детский фильм года».
    Сэмпл
    Перевод: М.Васильев
    Озвучка: Мегапыхарь (проект KINONAVSE100)
    Качество видео: DVDRip
    Формат видео: AVI
    Видео: 1007 Kbps, 720x304 (2.35:1) 25 000 fps, XviD
    Аудио: 192 Kbps, 44.1 KHz, 16 bits, 2 ch, AC 3

    MediaInfo

    General
    Complete name : C:\Users\master\Desktop\мумия\Dummie.The.Mummy.2014.avi
    Format : AVI
    Format/Info : Audio Video Interleave
    File size : 662 MiB
    Duration : 1h 16mn
    Overall bit rate : 1 209 Kbps
    Writing application : Lavf51.12.1
    Video
    ID : 0
    Format : xvid
    Codec ID : xvid
    Duration : 1h 16mn
    Bit rate : 1 007 Kbps
    Width : 720 pixels
    Height : 304 pixels
    Display aspect ratio : 2.35:1
    Frame rate : 25.000 fps
    Bits/(Pixel*Frame) : 0.184
    Stream size : 551 MiB (83%)
    Audio
    ID : 1
    Format : AC-3
    Format/Info : Audio Coding 3
    Mode extension : CM (complete main)
    Format settings, Endianness : Big
    Codec ID : 2000
    Duration : 1h 16mn
    Bit rate mode : Constant
    Bit rate : 192 Kbps
    Channel(s) : 2 channels
    Channel positions : Front: L R
    Sampling rate : 44.1 KHz
    Bit depth : 16 bits
    Compression mode : Lossy
    Stream size : 105 MiB (16%)
    Alignment : Aligned on interleaves
    Interleave, duration : 35 ms (0.87 video frame)

    Скриншот c названием фильма

    Скриншоты




    Скачать .torrent

    Скачать торрент-файл бесплатно и на максимальной скорости!

    Как скачивать? · Что такое торрент? · Рейтинг и ограничения

    !ВНИМАНИЕ!
    Сайт не распространяет и не хранит электронные версии произведений, а занимается лишь лишь предоставлением доступа к создаваемому пользователями каталогу ссылок на торрент-файлы, которые содержат только списки хеш-сумм, убедительная просьба с жалобами обращаться напрямую к пользователю. Файлы для обмена на трекере предоставлены пользователями сайта, и администрация не несёт ответственности за их содержание. Просьба не заливать файлы, защищенные авторскими правами, а также файлы нелегального содержания!


    _________________
    [Профиль] [ЛС]
    Показать сообщения:    
    Ответить на тему

    Текущее время: Сегодня, в 12:41

    Часовой пояс: GMT + 2



    Вы не можете начинать темы
    Вы не можете отвечать на сообщения
    Вы не можете редактировать свои сообщения
    Вы не можете удалять свои сообщения
    Вы не можете голосовать в опросах
    Вы не можете прикреплять файлы к сообщениям
    Вы не можете скачивать файлы