BitTorrentTracker PerecTracker.org
BitTorrentTracker PerecTracker.org
    
Регистрация  ·  Вход
 
 · 
Забыли пароль?

  • Темное лето / Мрачное лето / Неупокоенная / Dark Summer (Пол Солет / Paul Solet) [2014, США, Великобритания, триллер, WEB-DLRip] DVO (DeadSno & den904)

    Ответить на тему
     
    Автор Сообщение

    Light

    Создавать темы 20-Мар-2015 10:19

           

    [Цитировать]

    Темное лето / Мрачное лето / Неупокоенная / Dark Summer
    Страна: США, Великобритания
    Жанр: триллер
    Год выпуска: 2014
    Продолжительность: 01:21:20-Перевод: Любительский (двухголосный закадровый), DeadSno & den904
    Cубтитры: нет
    Режиссер: Пол Солет / Paul Solet-В ролях: Кейр Гилкрист, Петер Стормаре, Грэйс Фиппс, Стелла Маив, Маэстро Харрелл-Описание: История Дениэла Уильямса, 17-летнего подростка, которого суд приговорил к домашнему аресту на все лето. Пока его мать отлучилась по делам, в доме происходит происшествие, которое влечет за собой цепь страшных и непредсказуемых событий. Одноклассница Дениэла звонит ему по скайпу и обвиняет его в том, что он довел ее до самоубийства. Обвиняет и убивает себя прямо на его глазах. Перед смертью она говорит, что придет к нему после смерти и заберет его с собой…-Сэмпл: http://sendfile.su/1097980
    Качество видео: WEB-DLRip
    Формат видео: AVI
    Видео: XviD, 688х384, 16:9, 23,976 кадра/сек, 2176 Кбит/сек
    Аудио: AC-3, 48,0 КГц, 384 Кбит/сек, 6 каналов: Front: L C R, Side: L R, LFE

    MediaInfo

    Формат : AVI
    Формат/Информация : Audio Video Interleave
    Размер файла : 1,46 Гбайт
    Продолжительность : 1 ч. 21 м.
    Общий поток : 2570 Кбит/сек
    Программа кодирования : VirtualDubMod 1.5.10.2 (build 2540/release)
    Библиотека кодирования : VirtualDub build 35390/release
    Видео
    Идентификатор : 0
    Формат : MPEG-4 Visual
    Профиль формата : Advanced Simple@L5
    Параметр BVOP формата : 1
    Параметр QPel формата : Нет
    Параметр GMC формата : Без точки перехода
    Параметр матрицы формата : Default (MPEG)
    Идентификатор кодека : XVID
    Идентификатор кодека/Подсказка : XviD
    Продолжительность : 1 ч. 21 м.
    Битрейт : 2176 Кбит/сек
    Ширина : 688 пикселей
    Высота : 384 пикселя
    Соотношение сторон : 16:9
    Частота кадров : 23,976 кадра/сек
    Цветовое пространство : YUV
    Субдискретизация насыщенности : 4:2:0
    Битовая глубина : 8 бит
    Тип развёртки : Прогрессивная
    Метод сжатия : С потерями
    Бит/(Пиксели*Кадры) : 0.344
    Размер потока : 1,24 Гбайт (85%)
    Библиотека кодирования : XviD 1.2.1 (UTC 2008-12-04)
    Аудио
    Идентификатор : 1
    Формат : AC-3
    Формат/Информация : Audio Coding 3
    Расширение режима : CM (complete main)
    Параметр Endianness формата : Big
    Идентификатор кодека : 2000
    Продолжительность : 1 ч. 21 м.
    Вид битрейта : Постоянный
    Битрейт : 384 Кбит/сек
    Каналы : 6 каналов
    Расположение каналов : Front: L C R, Side: L R, LFE
    Частота : 48,0 КГц
    Битовая глубина : 16 бит
    Метод сжатия : С потерями
    Задержка видео : 31 мс.
    Размер потока : 223 Мбайт (15%)
    Выравнивание : Разделение по промежуткам
    Продолжительность промежутка : 42 мс. (1,00 видеокадр)
    Время предзагрузки промежутка : 500 мс.

    Скриншот c названием фильма

    Скриншоты






    Скачать .torrent

    Скачать торрент-файл бесплатно и на максимальной скорости!

    Как скачивать? · Что такое торрент? · Рейтинг и ограничения

    !ВНИМАНИЕ!
    Сайт не распространяет и не хранит электронные версии произведений, а занимается лишь лишь предоставлением доступа к создаваемому пользователями каталогу ссылок на торрент-файлы, которые содержат только списки хеш-сумм, убедительная просьба с жалобами обращаться напрямую к пользователю. Файлы для обмена на трекере предоставлены пользователями сайта, и администрация не несёт ответственности за их содержание. Просьба не заливать файлы, защищенные авторскими правами, а также файлы нелегального содержания!


    _________________
    [Профиль] [ЛС]
    Показать сообщения:    
    Ответить на тему

    Текущее время: Сегодня, в 22:12

    Часовой пояс: GMT + 2



    Вы не можете начинать темы
    Вы не можете отвечать на сообщения
    Вы не можете редактировать свои сообщения
    Вы не можете удалять свои сообщения
    Вы не можете голосовать в опросах
    Вы не можете прикреплять файлы к сообщениям
    Вы не можете скачивать файлы