BitTorrentTracker PerecTracker.org
BitTorrentTracker PerecTracker.org
    
Регистрация  ·  Вход
 
 · 
Забыли пароль?

  • Ныне прославися сын человеческий (Артур Войтецкий) [1990, религиозная драма, DVB-AVC]

    Ответить на тему
     
    Автор Сообщение

    Light

    Создавать темы 20-Мар-2015 01:55

           

    [Цитировать]

    Ныне прославися сын человеческий
    Жанр: религиозная драма
    Год выпуска: 1990
    Продолжительность: 01:30:56
    Режиссёр: Артур Войтецкий
    В ролях: Богдан Ступка, Валентина Салтовская, Лидия Ежевская, Афанасий Кочетков, Михаил Глузский, Виталик Бенедюк, Наталья Пастушенко, Инна Капинос, Александр Радько
    Описание: Религиозно-романтическая интерпретация повестей Чехова "Архиерей", "Княгиня", "Святая ночь" с использованием песнопений православных богослужений Бортнянского и Рахманинова, а также народных песен.
    Фильм повествует о последних днях жизни архиерея, который на смертном одре почувствовал свою оторванность от жизни, от природы, ощутил недостаток простого человеческого общения.
    Доп. информация: ремукс записи потока *.ts в *.mkv программой VideoReDo.
    В день трансляции в эфире телеканала были помехи в виде пощёлкиваний звука (см. семпл). Пощёлкивания сильно портят звук, поэтому раздача на усмотрение модераторов.
    Производство: Киностудия им. А. Довженко
    Сценарист: Артур Войтецкий
    Оператор: Вячеслав Родиченко
    Семпл: http://multi-up.com/1039231
    Качество видео: DVB-AVC
    Формат видео: MKV
    Видео: AVC (H264), 720x576@785x576 (4:3), анаморф, 25 fps, 2109 kbps
    Аудио: MP2, 256 kbps, 2 channels, 48 kHz

    MediaInfo

    GeneralUnique ID : 56827602013337803986063781434786983650 (0x2AC099190D706EF824F4020DC3C62EE2)Complete name : D:\Work\Video\Чехов фильм\Ныне прославися сын человеческий.mkvFormat : MatroskaFormat version : Version 2File size : 1.53 GiBDuration : 1h 30mnOverall bit rate : 2 413 KbpsWriting application : Lavf52.64.2Writing library : Lavf52.64.2
    VideoID : 1Format : AVCFormat/Info : Advanced Video CodecFormat profile : Main@L3.0Format settings, CABAC : YesFormat settings, ReFrames : 4 framesFormat settings, GOP : M=4, N=24Codec ID : V_MPEG4/ISO/AVCDuration : 1h 30mnBit rate : 2 109 KbpsWidth : 720 pixelsHeight : 576 pixelsDisplay aspect ratio : 4:3Original display aspect ratio : 4:3Frame rate mode : ConstantFrame rate : 25.000 fpsStandard : PALColor space : YUVChroma subsampling : 4:2:0Bit depth : 8 bitsScan type : MBAFFScan order : Top Field FirstBits/(Pixel*Frame) : 0.203Stream size : 1.34 GiB (87%)Default : YesForced : NoColor primaries : BT.601 PALTransfer characteristics : BT.470 System B, BT.470 System GMatrix coefficients : BT.601Color range : Limited
    AudioID : 2Format : MPEG AudioFormat version : Version 1Format profile : Layer 2Codec ID : A_MPEG/L2Codec ID/Hint : MP2Duration : 1h 30mnBit rate mode : ConstantBit rate : 256 KbpsChannel(s) : 2 channelsSampling rate : 48.0 KHzCompression mode : LossyStream size : 167 MiB (11%)Language : EnglishDefault : YesForced : No

    Скриншоты

    Скачать .torrent

    Скачать торрент-файл бесплатно и на максимальной скорости!

    Как скачивать? · Что такое торрент? · Рейтинг и ограничения

    !ВНИМАНИЕ!
    Сайт не распространяет и не хранит электронные версии произведений, а занимается лишь лишь предоставлением доступа к создаваемому пользователями каталогу ссылок на торрент-файлы, которые содержат только списки хеш-сумм, убедительная просьба с жалобами обращаться напрямую к пользователю. Файлы для обмена на трекере предоставлены пользователями сайта, и администрация не несёт ответственности за их содержание. Просьба не заливать файлы, защищенные авторскими правами, а также файлы нелегального содержания!


    _________________
    [Профиль] [ЛС]
    Показать сообщения:    
    Ответить на тему

    Текущее время: Сегодня, в 15:41

    Часовой пояс: GMT + 2



    Вы не можете начинать темы
    Вы не можете отвечать на сообщения
    Вы не можете редактировать свои сообщения
    Вы не можете удалять свои сообщения
    Вы не можете голосовать в опросах
    Вы не можете прикреплять файлы к сообщениям
    Вы не можете скачивать файлы