BitTorrentTracker PerecTracker.org
BitTorrentTracker PerecTracker.org
    
Регистрация  ·  Вход
 
 · 
Забыли пароль?

  • Умное решение / Smart Cookies (Роберт Исков / Robert Iscove) [2012, Канада, Приключения, HDTVRip] MVO

    Ответить на тему
     
    Автор Сообщение

    Light

    Создавать темы 19-Мар-2015 21:43

           

    [Цитировать]

    Умное решение / Smart Cookies
    Страна: Канада
    Жанр: Приключения
    Год выпуска: 2012
    Продолжительность: 01:24:28
    Перевод: Профессиональный (многоголосый закадровый)
    Cубтитры: нет
    Режиссер: Роберт Исков / Robert Iscove
    В ролях: Джессалин Гилсиг
    Тай Олссон
    Саманта Феррис
    Бэйли Мэдисон
    Патриция Ричардсон
    Клер Корлетт
    Мэдди Янко
    Бриттни Ирвин
    Мелоди Барбара-Жан Чои
    Мишель Кребер
    Описание: Главная героиня получает наказание в виде общественных работ – девушка на три месяца становится куратором группы девочек-скаутов, и ее главная задача – помочь им победить в конкурсе по продаже печенья!
    Сэмпл: https://yadi.sk/i/NocRoLykfMx2B
    Доп. информация: За предоставленный рип благодарим Ledy_X
    "Спасибы" просьба ПИСАТЬ в теме, тем самым вы продлеваете жизнь раздаче.
    Релиз
    Качество видео: HDTVRip [Исходник 1080i]
    Формат видео: AVI
    Видео: 720x400 (1.80:1), 25 fps, XviD build 50 ~2115 kbps avg, 0.29 bit/pixel
    Аудио: 48 kHz, AC3 Dolby Digital, 2/0 (L,R) ch, ~192 kbps

    MediaInfo

    Умное решение - Smart Cookies [Rip by Ledy_X].avi
    Format : AVI
    Format/Info : Audio Video Interleave
    File size : 1.37 GiB
    Duration : 1h 24mn
    Overall bit rate : 2 318 Kbps
    Movie name : Умное решение - Smart Cookies [Rip by Ledy_X]
    Director : Rip by Ledy_X
    Writing application : VirtualDubMod 1.5.10.3 | www.virtualdub-fr.org || (build 2550/release)
    Copyright : Edich2
    Comment : RuTracker.org
    Video
    ID : 0
    Format : MPEG-4 Visual
    Format profile : Advanced Simple@L5
    Format settings, BVOP : 1
    Format settings, QPel : No
    Format settings, GMC : No warppoints
    Format settings, Matrix : Default (MPEG)
    Codec ID : XVID
    Codec ID/Hint : XviD
    Duration : 1h 24mn
    Bit rate : 2 116 Kbps
    Width : 720 pixels
    Height : 400 pixels
    Display aspect ratio : 16:9
    Frame rate : 25.000 fps
    Color space : YUV
    Chroma subsampling : 4:2:0
    Bit depth : 8 bits
    Scan type : Progressive
    Compression mode : Lossy
    Bits/(Pixel*Frame) : 0.294
    Stream size : 1.25 GiB (91%)
    Writing library : XviD 1.2.1 (UTC 2008-12-04)
    Audio
    ID : 1
    Format : AC-3
    Format/Info : Audio Coding 3
    Mode extension : CM (complete main)
    Format settings, Endianness : Big
    Codec ID : 2000
    Duration : 1h 24mn
    Bit rate mode : Constant
    Bit rate : 192 Kbps
    Channel(s) : 2 channels
    Channel positions : Front: L R
    Sampling rate : 48.0 KHz
    Bit depth : 16 bits
    Compression mode : Lossy
    Stream size : 116 MiB (8%)
    Alignment : Split accross interleaves
    Interleave, duration : 40 ms (1.00 video frame)
    Interleave, preload duration : 500 ms

    Скриншоты


    Скачать .torrent

    Скачать торрент-файл бесплатно и на максимальной скорости!

    Как скачивать? · Что такое торрент? · Рейтинг и ограничения

    !ВНИМАНИЕ!
    Сайт не распространяет и не хранит электронные версии произведений, а занимается лишь лишь предоставлением доступа к создаваемому пользователями каталогу ссылок на торрент-файлы, которые содержат только списки хеш-сумм, убедительная просьба с жалобами обращаться напрямую к пользователю. Файлы для обмена на трекере предоставлены пользователями сайта, и администрация не несёт ответственности за их содержание. Просьба не заливать файлы, защищенные авторскими правами, а также файлы нелегального содержания!


    _________________
    [Профиль] [ЛС]
    Показать сообщения:    
    Ответить на тему

    Текущее время: Сегодня, в 23:55

    Часовой пояс: GMT + 2



    Вы не можете начинать темы
    Вы не можете отвечать на сообщения
    Вы не можете редактировать свои сообщения
    Вы не можете удалять свои сообщения
    Вы не можете голосовать в опросах
    Вы не можете прикреплять файлы к сообщениям
    Вы не можете скачивать файлы