BitTorrentTracker PerecTracker.org
BitTorrentTracker PerecTracker.org
    
Регистрация  ·  Вход
 
 · 
Забыли пароль?

  • Написать любовь на её руках / To Write Love on Her Arms (Нэйтан Франковски / Nathan Frankowski) [2015, США, драма, биография, музыка, WEB-DLRip] MVO (iTunes)

    Ответить на тему
     
    Автор Сообщение

    rechyn

    Создавать темы 19-Мар-2015 13:19

           

    [Цитировать]

    Написать любовь на её руках / To Write Love on Her Arms
    Страна: США
    Жанр: драма, биография, музыка
    Год выпуска: 2015
    Продолжительность:01:42:25
    Перевод: Многоголосый (профессиональный закадровый) [iTunes]
    Оригинальная аудиодорожка: нет
    Cубтитры: нет
    Режиссер: Нэйтан Франковски / Nathan Frankowski
    В ролях:Кэт Деннингс, Чад Майкл Мюррэй, Руперт Френд, Марк Сауль, Джулиана Харкви, Дрейтон Болл, Тиффани Бэнкс, Кейли Боф, Брэд Бенедикт, Рас Блэквелл
    Описание:Фильм рассказывает о девятнадцатилетней девушке по имени Рени, которая всегда любила сказки: ее идеалы — это принцессы, герои и вечно-счастливый конец. Но жизнь Рени больше похожа на страшную сказку: она борется с наркозависимостью, от которой страдает, а так же с депрессией и членовредительством. В творческой смеси художественной фантазии и суровой реальности, фильм показывает мужество и преодоление всех препятствий в жизни Рени.


    Автор рипа:*AleksSin*
    Качество: WEB-DLRip
    Контейнер: AVI
    Видео: 656x272 (2.41:1), 23.976 fps, XviD build 73 ~882 kbps avg, 0.21 bit/pixel
    Аудио: 48 kHz, MPEG Layer 3, 2 ch, ~128.00 kbps avg

    MI

    Общее
    Полное имя : C:\Users\Пользователь\Downloads\Написать любовь на её руках_2015_WEB-DLRip.avi
    Формат : AVI
    Формат/Информация : Audio Video Interleave
    Размер файла : 746 Мбайт
    Продолжительность : 1 ч. 42 м.
    Общий поток : 1019 Кбит/сек
    Программа кодирования : VirtualDubMod 1.5.10.3 | www.virtualdub-fr.org || (build 2550/release)
    Библиотека кодирования : VirtualDubMod build 2550/release
    Видео
    Идентификатор : 0
    Формат : MPEG-4 Visual
    Профиль формата : Advanced Simple@L5
    Параметр BVOP формата : 1
    Параметр QPel формата : Нет
    Параметр GMC формата : Без точки перехода
    Параметр матрицы формата : Выборочная
    Идентификатор кодека : XVID
    Идентификатор кодека/Подсказка : XviD
    Продолжительность : 1 ч. 42 м.
    Битрейт : 882 Кбит/сек
    Ширина : 656 пикс.
    Высота : 272 пикс.
    Соотношение сторон : 2,40:1
    Частота кадров : 23,976 кадр/сек
    Цветовое пространство : YUV
    Подвыборка цветности : 4:2:0
    Битовая глубина : 8 бит
    Тип развёртки : Прогрессивная
    Метод сжатия : С потерями
    Бит/(Пиксели*Кадры) : 0.206
    Размер потока : 646 Мбайт (87%)
    Библиотека кодирования : XviD 73
    Аудио
    Идентификатор : 1
    Формат : MPEG Audio
    Версия формата : Version 1
    Профиль формата : Layer 3
    Идентификатор кодека : 55
    Идентификатор кодека/Подсказка : MP3
    Продолжительность : 1 ч. 42 м.
    Вид битрейта : Постоянный
    Битрейт : 128 Кбит/сек
    Каналы : 2 канала
    Частота : 48,0 КГц
    Метод сжатия : С потерями
    Размер потока : 93,5 Мбайт (13%)
    Выравнивание : Соединение по промежуткам
    Продолжительность промежутка : 42 мс. (1,00 видеокадр)
    Время предзагрузки промежутка : 504 ms
    Библиотека кодирования : LAME3.99r
    Настройки программы : -m s -V 4 -q 2 -lowpass 17 -b 128

    Скриншоты

    Скачать .torrent

    Скачать торрент-файл бесплатно и на максимальной скорости!

    Как скачивать? · Что такое торрент? · Рейтинг и ограничения

    !ВНИМАНИЕ!
    Сайт не распространяет и не хранит электронные версии произведений, а занимается лишь лишь предоставлением доступа к создаваемому пользователями каталогу ссылок на торрент-файлы, которые содержат только списки хеш-сумм, убедительная просьба с жалобами обращаться напрямую к пользователю. Файлы для обмена на трекере предоставлены пользователями сайта, и администрация не несёт ответственности за их содержание. Просьба не заливать файлы, защищенные авторскими правами, а также файлы нелегального содержания!


    _________________
    [Профиль] [ЛС]
    Показать сообщения:    
    Ответить на тему

    Текущее время: Сегодня, в 00:04

    Часовой пояс: GMT + 2



    Вы не можете начинать темы
    Вы не можете отвечать на сообщения
    Вы не можете редактировать свои сообщения
    Вы не можете удалять свои сообщения
    Вы не можете голосовать в опросах
    Вы не можете прикреплять файлы к сообщениям
    Вы не можете скачивать файлы