BitTorrentTracker PerecTracker.org
BitTorrentTracker PerecTracker.org
    
Регистрация  ·  Вход
 
 · 
Забыли пароль?

  • (Alternative Rock) Rival State - Apollo Me - 2012, FLAC (tracks+.cue), lossless

    Ответить на тему
     
    Автор Сообщение

    Columb

    Создавать темы 15-Мар-2013 16:40

           

    [Цитировать]

    Rival State - Apollo Me - 2012
    Жанр: Alternative Rock
    Год издания: 2012
    Издатель (лейбл): Shock Records
    Страна: New Zealand
    Аудиокодек: FLAC (*.flac)
    Тип рипа: tracks+.cue
    Битрейт аудио: lossless
    Продолжительность: 00:40:55
    Источник (релизер): Mortaris
    Наличие сканов в содержимом раздачи: нет
    Треклист:
    01. Scatter Brains
    02. Sleep Talker
    03. Aces
    04. Four Leaf Clover
    05. Fall From The Sky
    06. Scarlet Fever
    07. Taking Our Time
    08. Sisters Of Fate
    09. Coming Home
    10. White Cliffs
    11. Indiana Jones

    Состав


    Luke Van Hoof | Stefan Einarsson | Jo Einarsson | Nimal Fernando | Valdi Einarsson
    -

    Лог создания рипа

    Exact Audio Copy V1.0 beta 3 from 29. August 2011
    EAC extraction logfile from 14. March 2013, 21:19
    Rival State / Apollo Me
    Used drive : ATAPI iHAS124 W Adapter: 0 ID: 2
    Read mode : Secure
    Utilize accurate stream : Yes
    Defeat audio cache : Yes
    Make use of C2 pointers : No
    Read offset correction : 48
    Overread into Lead-In and Lead-Out : No
    Fill up missing offset samples with silence : Yes
    Delete leading and trailing silent blocks : No
    Null samples used in CRC calculations : Yes
    Used interface : Native Win32 interface for Win NT & 2000
    Gap handling : Appended to previous track
    Used output format : User Defined Encoder
    Selected bitrate : 1024 kBit/s
    Quality : High
    Add ID3 tag : No
    Command line compressor : C:\Program Files (x86)\Exact Audio Copy\Flac\flac.exe
    Additional command line options : -8 -V -T "ARTIST=%artist%" -T "TITLE=%title%" -T "ALBUM=%albumtitle%" -T "DATE=%year%" -T "TRACKNUMBER=%tracknr%" -T "GENRE=%genre%" -T "PERFORMER=%albuminterpret%" -T "COMPOSER=%composer%" %haslyrics%--tag-from-file=LYRICS="%lyricsfile%"%haslyrics% -T "ALBUMARTIST=%albumartist%" -T "DISCNUMBER=%cdnumber%" -T "TOTALDISCS=%totalcds%" -T "TOTALTRACKS=%numtracks%" -T "COMMENT=%comment%" %source% -o %dest%
    TOC of the extracted CD
    Track | Start | Length | Start sector | End sector
    ---------------------------------------------------------
    1 | 0:00.00 | 3:13.11 | 0 | 14485
    2 | 3:13.11 | 3:34.12 | 14486 | 30547
    3 | 6:47.23 | 3:35.56 | 30548 | 46728
    4 | 10:23.04 | 3:48.04 | 46729 | 63832
    5 | 14:11.08 | 3:36.33 | 63833 | 80065
    6 | 17:47.41 | 3:04.67 | 80066 | 93932
    7 | 20:52.33 | 3:13.39 | 93933 | 108446
    8 | 24:05.72 | 3:31.41 | 108447 | 124312
    9 | 27:37.38 | 4:26.73 | 124313 | 144335
    10 | 32:04.36 | 4:29.56 | 144336 | 164566
    11 | 36:34.17 | 4:20.37 | 164567 | 184103
    Track 1
    Filename D:\rips\Rival State - Apollo Me (2012) [FLAC]\01 Scatter Brains.wav
    Pre-gap length 0:00:02.00
    Peak level 100.0 %
    Extraction speed 4.3 X
    Track quality 100.0 %
    Test CRC 6201D6F8
    Copy CRC 6201D6F8
    Track not present in AccurateRip database
    Copy OK
    Track 2
    Filename D:\rips\Rival State - Apollo Me (2012) [FLAC]\02 Sleep Talker.wav
    Pre-gap length 0:00:00.44
    Peak level 100.0 %
    Extraction speed 4.7 X
    Track quality 100.0 %
    Test CRC 509497D8
    Copy CRC 509497D8
    Track not present in AccurateRip database
    Copy OK
    Track 3
    Filename D:\rips\Rival State - Apollo Me (2012) [FLAC]\03 Aces.wav
    Pre-gap length 0:00:00.01
    Peak level 100.0 %
    Extraction speed 5.1 X
    Track quality 100.0 %
    Test CRC 3BC3B33F
    Copy CRC 3BC3B33F
    Track not present in AccurateRip database
    Copy OK
    Track 4
    Filename D:\rips\Rival State - Apollo Me (2012) [FLAC]\04 Four Leaf Clover.wav
    Pre-gap length 0:00:01.20
    Peak level 100.0 %
    Extraction speed 3.9 X
    Track quality 99.9 %
    Test CRC CD17068C
    Copy CRC CD17068C
    Track not present in AccurateRip database
    Copy OK
    Track 5
    Filename D:\rips\Rival State - Apollo Me (2012) [FLAC]\05 Fall From The Sky.wav
    Pre-gap length 0:00:00.57
    Peak level 100.0 %
    Extraction speed 4.0 X
    Track quality 99.9 %
    Test CRC 5194B4D3
    Copy CRC 5194B4D3
    Track not present in AccurateRip database
    Copy OK
    Track 6
    Filename D:\rips\Rival State - Apollo Me (2012) [FLAC]\06 Scarlet Fever.wav
    Pre-gap length 0:00:00.72
    Peak level 100.0 %
    Extraction speed 3.9 X
    Track quality 99.9 %
    Test CRC 51CAE32A
    Copy CRC 51CAE32A
    Track not present in AccurateRip database
    Copy OK
    Track 7
    Filename D:\rips\Rival State - Apollo Me (2012) [FLAC]\07 Taking Our Time.wav
    Pre-gap length 0:00:01.04
    Peak level 100.0 %
    Extraction speed 1.9 X
    Track quality 99.7 %
    Test CRC EAE02541
    Copy CRC EAE02541
    Track not present in AccurateRip database
    Copy OK
    Track 8
    Filename D:\rips\Rival State - Apollo Me (2012) [FLAC]\08 Sisters Of Fate.wav
    Pre-gap length 0:00:02.30
    Peak level 100.0 %
    Extraction speed 6.5 X
    Track quality 100.0 %
    Test CRC 00181C12
    Copy CRC 00181C12
    Track not present in AccurateRip database
    Copy OK
    Track 9
    Filename D:\rips\Rival State - Apollo Me (2012) [FLAC]\09 Coming Home.wav
    Pre-gap length 0:00:02.30
    Peak level 100.0 %
    Extraction speed 6.8 X
    Track quality 100.0 %
    Test CRC 1C62D046
    Copy CRC 1C62D046
    Track not present in AccurateRip database
    Copy OK
    Track 10
    Filename D:\rips\Rival State - Apollo Me (2012) [FLAC]\10 White Cliffs.wav
    Pre-gap length 0:00:01.98
    Peak level 100.0 %
    Extraction speed 7.2 X
    Track quality 100.0 %
    Test CRC 565237ED
    Copy CRC 565237ED
    Track not present in AccurateRip database
    Copy OK
    Track 11
    Filename D:\rips\Rival State - Apollo Me (2012) [FLAC]\11 Indiana Jones.wav
    Pre-gap length 0:00:03.78
    Peak level 100.0 %
    Extraction speed 7.4 X
    Track quality 100.0 %
    Test CRC 5868FB71
    Copy CRC 5868FB71
    Track not present in AccurateRip database
    Copy OK
    None of the tracks are present in the AccurateRip database
    No errors occurred
    End of status report
    ---- CUETools DB Plugin V2.1.3
    [CTDB TOCID: Vb4tV68QuPZXxeZMdwS0sY9mZxM-] found, Submit result: Vb4tV68QuPZXxeZMdwS0sY9mZxM- has been uploaded
    [045bd632] (1/2) Differs in 39 samples @23:13:04-23:13:06,23:13:17
    [5ba91bbf] (1/2) Differs in 9 samples @23:13:16
    You can use CUETools to repair this rip.
    ==== Log checksum 319F97FB10968A586622301DCD749812DFE3E0476C18292AC6C0B8B9E208357F ====

    Содержание индексной карты (.CUE)

    REM GENRE Rock
    REM DATE 2012
    REM DISCID A009960B
    REM COMMENT "ExactAudioCopy v1.0b3"
    FILE "01 Scatter Brains.flac" WAVE
    TRACK 01 AUDIO
    INDEX 01 00:00:00
    TRACK 02 AUDIO
    INDEX 00 03:12:53
    FILE "02 Sleep Talker.flac" WAVE
    INDEX 01 00:00:00
    TRACK 03 AUDIO
    INDEX 00 03:34:11
    FILE "03 Aces.flac" WAVE
    INDEX 01 00:00:00
    TRACK 04 AUDIO
    INDEX 00 03:34:41
    FILE "04 Four Leaf Clover.flac" WAVE
    INDEX 01 00:00:00
    TRACK 05 AUDIO
    INDEX 00 03:47:36
    FILE "05 Fall From The Sky.flac" WAVE
    INDEX 01 00:00:00
    TRACK 06 AUDIO
    INDEX 00 03:35:54
    FILE "06 Scarlet Fever.flac" WAVE
    INDEX 01 00:00:00
    TRACK 07 AUDIO
    INDEX 00 03:03:64
    FILE "07 Taking Our Time.flac" WAVE
    INDEX 01 00:00:00
    TRACK 08 AUDIO
    INDEX 00 03:11:16
    FILE "08 Sisters Of Fate.flac" WAVE
    INDEX 01 00:00:00
    TRACK 09 AUDIO
    INDEX 00 03:29:18
    FILE "09 Coming Home.flac" WAVE
    INDEX 01 00:00:00
    TRACK 10 AUDIO
    INDEX 00 04:24:74
    FILE "10 White Cliffs.flac" WAVE
    INDEX 01 00:00:00
    TRACK 11 AUDIO
    INDEX 00 04:25:72
    FILE "11 Indiana Jones.flac" WAVE
    INDEX 01 00:00:00
    Скачать .torrent

    Скачать торрент-файл бесплатно и на максимальной скорости!

    Как скачивать? · Что такое торрент? · Рейтинг и ограничения

    !ВНИМАНИЕ!
    Сайт не распространяет и не хранит электронные версии произведений, а занимается лишь лишь предоставлением доступа к создаваемому пользователями каталогу ссылок на торрент-файлы, которые содержат только списки хеш-сумм, убедительная просьба с жалобами обращаться напрямую к пользователю. Файлы для обмена на трекере предоставлены пользователями сайта, и администрация не несёт ответственности за их содержание. Просьба не заливать файлы, защищенные авторскими правами, а также файлы нелегального содержания!

    [Профиль] [ЛС]
    Показать сообщения:    
    Ответить на тему

    Текущее время: Сегодня, в 16:33

    Часовой пояс: GMT + 2



    Вы не можете начинать темы
    Вы не можете отвечать на сообщения
    Вы не можете редактировать свои сообщения
    Вы не можете удалять свои сообщения
    Вы не можете голосовать в опросах
    Вы не можете прикреплять файлы к сообщениям
    Вы не можете скачивать файлы