BitTorrentTracker PerecTracker.org
BitTorrentTracker PerecTracker.org
    
Регистрация  ·  Вход
 
 · 
Забыли пароль?

  • Княжна Мери (Исидор Анненский) [1955, исторический фильм, мелодрама, экранизация, DVB-AVC]

    Ответить на тему
     
    Автор Сообщение

    Light

    Создавать темы 19-Мар-2015 04:55

           

    [Цитировать]

    Княжна Мери
    Жанр: исторический фильм, мелодрама, экранизация
    Год выпуска: 1955
    Продолжительность: 01:35:50
    Режиссёр: Исидор Анненский
    В ролях: Анатолий Вербицкий, Карина Шмаринова, Леонид Губанов, Михаил Астангов, Клавдия Еланская, Татьяна Пилецкая, Фёдор Никитин, Виталий Полицеймако, Татьяна Панкова, Виктор Кольцов (Кутаков), Георгий Георгиу, Арутюн Акопян, Дмитрий Кара-Дмитриев, Константин Немоляев, Вера Донская-Присяжнюк, Капитолина Ильенко, Николай Горлов, Клавдия Козлёнкова, Константин Михайлов, Ян Янакиев
    Описание: Экранизация одноименной главы романа М. Ю. Лермонтова «Герой нашего времени».
    Фильм рассказывает о романтической истории Печорина, чья безрассудная любовная игра оборачивается трагедией и для него самого — человека, явно не вписывающегося в законы времени, в котором приговорила его жить судьба…
    Доп. информация: ремукс записи потока *.ts в *.mkv программой VideoReDo. На видео местами баннеры (см. последний скриншот).
    В день трансляции в эфире телеканала были помехи в виде пощёлкиваний звука (см. семпл). Пощёлкивания сильно портят звук, поэтому раздача на усмотрение модераторов.
    Производство: Киностудия им. М. Горького
    Сценарист: Исидор Анненский
    Оператор: Михаил Кириллов
    Композитор: Лев Шварц
    Художник: Александр Дихтяр
    Семпл: http://multi-up.com/1039076
    Качество видео: DVB-AVC
    Формат видео: MKV
    Видео: AVC (H264), 720x576@785x576 (4:3), анаморф, 25 fps, 2106 kbps
    Аудио: MP2, 256 kbps, 2 channels, 48 kHz

    MediaInfo

    GeneralUnique ID : 207552617978247350674731456753104472767 (0x9C252E2196C7301DA77838989C624ABF)Complete name : D:\Work\Video\Княжна Мери (щелчки)\Княжна Мери.mkvFormat : MatroskaFormat version : Version 2File size : 1.61 GiBDuration : 1h 35mnOverall bit rate : 2 410 KbpsWriting application : Lavf52.64.2Writing library : Lavf52.64.2
    VideoID : 1Format : AVCFormat/Info : Advanced Video CodecFormat profile : Main@L3.0Format settings, CABAC : YesFormat settings, ReFrames : 4 framesFormat settings, GOP : M=4, N=24Codec ID : V_MPEG4/ISO/AVCDuration : 1h 35mnBit rate : 2 106 KbpsWidth : 720 pixelsHeight : 576 pixelsDisplay aspect ratio : 4:3Original display aspect ratio : 4:3Frame rate mode : ConstantFrame rate : 25.000 fpsStandard : PALColor space : YUVChroma subsampling : 4:2:0Bit depth : 8 bitsScan type : MBAFFScan order : Top Field FirstBits/(Pixel*Frame) : 0.203Stream size : 1.41 GiB (87%)Default : YesForced : NoColor primaries : BT.601 PALTransfer characteristics : BT.470 System B, BT.470 System GMatrix coefficients : BT.601Color range : Limited
    AudioID : 2Format : MPEG AudioFormat version : Version 1Format profile : Layer 2Codec ID : A_MPEG/L2Codec ID/Hint : MP2Duration : 1h 35mnBit rate mode : ConstantBit rate : 256 KbpsChannel(s) : 2 channelsSampling rate : 48.0 KHzCompression mode : LossyStream size : 175 MiB (11%)Language : EnglishDefault : YesForced : No

    Скриншоты

    Скачать .torrent

    Скачать торрент-файл бесплатно и на максимальной скорости!

    Как скачивать? · Что такое торрент? · Рейтинг и ограничения

    !ВНИМАНИЕ!
    Сайт не распространяет и не хранит электронные версии произведений, а занимается лишь лишь предоставлением доступа к создаваемому пользователями каталогу ссылок на торрент-файлы, которые содержат только списки хеш-сумм, убедительная просьба с жалобами обращаться напрямую к пользователю. Файлы для обмена на трекере предоставлены пользователями сайта, и администрация не несёт ответственности за их содержание. Просьба не заливать файлы, защищенные авторскими правами, а также файлы нелегального содержания!


    _________________
    [Профиль] [ЛС]
    Показать сообщения:    
    Ответить на тему

    Текущее время: Сегодня, в 05:58

    Часовой пояс: GMT + 2



    Вы не можете начинать темы
    Вы не можете отвечать на сообщения
    Вы не можете редактировать свои сообщения
    Вы не можете удалять свои сообщения
    Вы не можете голосовать в опросах
    Вы не можете прикреплять файлы к сообщениям
    Вы не можете скачивать файлы