BitTorrentTracker PerecTracker.org
BitTorrentTracker PerecTracker.org
    
Регистрация  ·  Вход
 
 · 
Забыли пароль?

  • Холод в июле / Cold in July (Джим Микл / Jim Mickle) [2014, США, Франция, триллер, криминал, драма, BDRip] Dub

    Ответить на тему
     
    Автор Сообщение

    Light

    Создавать темы 19-Мар-2015 00:43

           

    [Цитировать]

    Холод в июле / Cold in July
    Год выпуска: 2014
    Страна: США, Франция
    Жанр: триллер, криминал, драма
    Продолжительность: 01:50:02
    Перевод: Профессиональный (полное дублирование)
    Субтитры: нет
    Режиссер: Джим Микл / Jim Mickle
    В ролях: Винесса Шоу (Ann Dane), Майкл С. Холл (Richard Dane), Сэм Шепард (Russel), Уайатт Расселл (Freddy), Дон Джонсон (Jim Bob), Билл Сейдж (Baseball Announcer), Ник Дамичи (Ray Price), Кристин Гриффит (Kay), Лэнни Флаэрти (Jack Crow), Кен Холмс (Burglar), Брианда Аграмонте (Young Latina girl on tape), Рэйчел Зейгер-Хааг (Valerie)-Мировая премьера: 18 января 2014-Описание: Ричард Дэйн, тихий и безобидный мужчина, случайно застрелил забравшегося в его дом грабителя. Полиция опознала в убитом давно находящегося в розыске преступника, труп забрали и быстро похоронили. Однако вскоре появляется отец погибшего, Бен Рассел, живущий по принципу «око за око». И теперь Дэйну приходится защищать себя и своего ребенка. А вскоре в полицейском участке на доске с фотографиями разыскиваемых преступников он видит знакомую фамилию Рассел, но абсолютно незнакомое лицо. Полицейские подставили его или произошла трагическая ошибка? Вместе с Беном и его другом, частным детективом Джимом, он начинает нешуточное сражение за торжество справедливости.-Рейтинг
    : 6.558 (2955)
    : 6.90 (11 667)
    MPAA: R - Лицам до 17 лет обязательно присутствие взрослого
    -Качество: BDRip
    Формат: AVI //SAMPLE//
    Видео: 720x304 (2.37:1), 23.976 fps, XviD build 66 ~1501 kbps avg, 0.29 bit/pixel
    Аудио: 48 kHz, AC3 Dolby Digital, 3/2 (L,C,R,l,r) + LFE ch, ~384 kbps

    MediaInfo

    Общее
    Полное имя : F:\Video\AVI\Films\Holod.V.Ijule.2014.RUS.BDRip.XviD.AC3.-AllFilms.avi
    Формат : AVI
    Формат/Информация : Audio Video Interleave
    Размер файла : 1,46 Гбайт
    Продолжительность : 1 ч. 50 м.
    Общий поток : 1895 Кбит/сек
    Название фильма : Холод в июле / Cold in july (2014)
    Режиссёр : Shevon (Blu-Ray Disk)
    Программа кодирования : VirtualDubMod 1.5.10.3 | www.virtualdub-fr.org || (build 2550/release)
    Правообладатель : AllFilms (perectracker.org)
    Видео
    Идентификатор : 0
    Формат : MPEG-4 Visual
    Профиль формата : Advanced Simple@L5
    Параметр BVOP формата : 1
    Параметр QPel формата : Нет
    Параметр GMC формата : Без точки перехода
    Параметр матрицы формата : Выборочная
    Идентификатор кодека : XVID
    Идентификатор кодека/Подсказка : XviD
    Продолжительность : 1 ч. 50 м.
    Битрейт : 1502 Кбит/сек
    Ширина : 720 пикселей
    Высота : 304 пикселя
    Соотношение сторон : 2,35:1
    Частота кадров : 23,976 кадра/сек
    Цветовое пространство : YUV
    Субдискретизация насыщенности : 4:2:0
    Битовая глубина : 8 бит
    Тип развёртки : Прогрессивная
    Метод сжатия : С потерями
    Бит/(Пиксели*Кадры) : 0.286
    Размер потока : 1,15 Гбайт (79%)
    Библиотека кодирования : XviD 66
    Аудио
    Идентификатор : 1
    Формат : AC-3
    Формат/Информация : Audio Coding 3
    Расширение режима : CM (complete main)
    Параметр Endianness формата : Big
    Идентификатор кодека : 2000
    Продолжительность : 1 ч. 50 м.
    Вид битрейта : Постоянный
    Битрейт : 384 Кбит/сек
    Каналы : 6 каналов
    Расположение каналов : Front: L C R, Side: L R, LFE
    Частота : 48,0 КГц
    Битовая глубина : 16 бит
    Метод сжатия : С потерями
    Размер потока : 302 Мбайт (20%)
    Выравнивание : Разделение по промежуткам
    Продолжительность промежутка : 42 мс. (1,00 видеокадр)
    Время предзагрузки промежутка : 500 мс.

    Скриншоты


    -
    Знаете ли Вы, что...

  • Фильм снят по одноименному роману Джо Р. Лэнсдэйла.
  • Джо Р. Лэнсдэйл, по произведению которого снят фильм, сыграл эпизодическую роль священника у края могилы.
    -
    Скачать .torrent

    Скачать торрент-файл бесплатно и на максимальной скорости!

    Как скачивать? · Что такое торрент? · Рейтинг и ограничения

    !ВНИМАНИЕ!
    Сайт не распространяет и не хранит электронные версии произведений, а занимается лишь лишь предоставлением доступа к создаваемому пользователями каталогу ссылок на торрент-файлы, которые содержат только списки хеш-сумм, убедительная просьба с жалобами обращаться напрямую к пользователю. Файлы для обмена на трекере предоставлены пользователями сайта, и администрация не несёт ответственности за их содержание. Просьба не заливать файлы, защищенные авторскими правами, а также файлы нелегального содержания!


  • _________________
    [Профиль] [ЛС]
    Показать сообщения:    
    Ответить на тему

    Текущее время: Сегодня, в 23:53

    Часовой пояс: GMT + 2



    Вы не можете начинать темы
    Вы не можете отвечать на сообщения
    Вы не можете редактировать свои сообщения
    Вы не можете удалять свои сообщения
    Вы не можете голосовать в опросах
    Вы не можете прикреплять файлы к сообщениям
    Вы не можете скачивать файлы