BitTorrentTracker PerecTracker.org
BitTorrentTracker PerecTracker.org
    
Регистрация  ·  Вход
 
 · 
Забыли пароль?

  • На таёжных ветрах (Анатолий Ниточкин) [1979, экранизация, DVB]

    Ответить на тему
     
    Автор Сообщение

    Light

    Создавать темы 18-Мар-2015 12:07

           

    [Цитировать]

    На таёжных ветрах (2 серии)
    Жанр: экранизация
    Год выпуска: 1979
    Продолжительность: 01:13:59 + 01:13:52
    Режиссёр: Анатолий Ниточкин
    В ролях: Евгений Шутов, Владимир Борисов, Вячеслав Говалло, Юрий Назаров, Ирина Бразговка, Михаил Кокшенов, Ирина Калиновская, Георгий Мартиросян, Александр Вдовин, Татьяна Божок, Валерий Зотов, Майя Булгакова, Иван Рыжов, Любовь Мышева, Клементина Ростовцева
    Описание: По мотивам романа К.Лагунова "Одержимые"
    Фильм посвящен геологам-нефтеразведчикам, осваивающим северные районы страны.
    Доп. информация: Запись потока *.ts спутника ABS 2, 75° в.д., ремукс в *.mpg программой VideoReDo.
    Качество видео: DVB
    Формат видео: MPEG-PS
    Видео: MPEG Video, 704(768)x576 (4:3), 25,000 кадров/сек, 2638 Кбит/сек
    Аудио: MPEG Audio, 48,0 КГц, 192 Кбит/сек, 2 канала

    MediaInfo

    Общее
    Полное имя : D:\Torrent\На таежных ветрах\НА ТАЕЖНЫХ ВЕТРАХ 1 (ZVEZDA 75).mpg
    Формат : MPEG-PS
    Размер файла : 1,49 Гбайт
    Продолжительность : 1 ч. 13 м.
    Режим общего битрейта : Переменный
    Общий поток : 2887 Кбит/сек
    Видео
    Идентификатор : 224 (0xE0)
    Формат : MPEG Video
    Версия формата : Version 2
    Профиль формата : Main@Main
    Параметр BVOP формата : Да
    Параметр матрицы формата : Выборочная
    Параметр GOP формата : Variable
    Format_Settings_PictureStructure : Frame
    Продолжительность : 1 ч. 13 м.
    Вид битрейта : Переменный
    Битрейт : 2638 Кбит/сек
    Максимальный битрейт : 15,0 Мбит/сек
    Ширина : 704 пикселя
    Высота : 576 пикселей
    Соотношение сторон : 4:3
    Частота кадров : 25,000 кадров/сек
    Стандарт вещания : PAL
    Цветовое пространство : YUV
    Субдискретизация насыщенности : 4:2:0
    Битовая глубина : 8 бит
    Тип развёртки : Чересстрочная
    Порядок развёртки : Верхнее поле первое
    Метод сжатия : С потерями
    Бит/(Пиксели*Кадры) : 0.260
    Временной код первого кадра : 00:00:00:00
    Оригинал временного кода : Group of pictures header
    Размер потока : 1,36 Гбайт (91%)
    Аудио
    Идентификатор : 192 (0xC0)
    Формат : MPEG Audio
    Версия формата : Version 1
    Профиль формата : Layer 2
    Продолжительность : 1 ч. 13 м.
    Вид битрейта : Постоянный
    Битрейт : 192 Кбит/сек
    Каналы : 2 канала
    Частота : 48,0 КГц
    Метод сжатия : С потерями
    Задержка видео : 24 мс.
    Размер потока : 102 Мбайт (7%)
    Общее
    Полное имя : D:\Torrent\На таежных ветрах\НА ТАЕЖНЫХ ВЕТРАХ 2 (ZVEZDA 75).mpg
    Формат : MPEG-PS
    Размер файла : 1,49 Гбайт
    Продолжительность : 1 ч. 13 м.
    Режим общего битрейта : Переменный
    Общий поток : 2887 Кбит/сек
    Видео
    Идентификатор : 224 (0xE0)
    Формат : MPEG Video
    Версия формата : Version 2
    Профиль формата : Main@Main
    Параметр BVOP формата : Да
    Параметр матрицы формата : Выборочная
    Параметр GOP формата : Variable
    Format_Settings_PictureStructure : Frame
    Продолжительность : 1 ч. 13 м.
    Вид битрейта : Переменный
    Битрейт : 2638 Кбит/сек
    Максимальный битрейт : 15,0 Мбит/сек
    Ширина : 704 пикселя
    Высота : 576 пикселей
    Соотношение сторон : 4:3
    Частота кадров : 25,000 кадров/сек
    Стандарт вещания : PAL
    Цветовое пространство : YUV
    Субдискретизация насыщенности : 4:2:0
    Битовая глубина : 8 бит
    Тип развёртки : Чересстрочная
    Порядок развёртки : Верхнее поле первое
    Метод сжатия : С потерями
    Бит/(Пиксели*Кадры) : 0.260
    Временной код первого кадра : 00:00:00:00
    Оригинал временного кода : Group of pictures header
    Размер потока : 1,36 Гбайт (91%)
    Аудио
    Идентификатор : 192 (0xC0)
    Формат : MPEG Audio
    Версия формата : Version 1
    Профиль формата : Layer 2
    Продолжительность : 1 ч. 13 м.
    Вид битрейта : Постоянный
    Битрейт : 192 Кбит/сек
    Каналы : 2 канала
    Частота : 48,0 КГц
    Метод сжатия : С потерями
    Задержка видео : 24 мс.
    Размер потока : 101 Мбайт (7%)

    Скриншоты

    Скачать .torrent

    Скачать торрент-файл бесплатно и на максимальной скорости!

    Как скачивать? · Что такое торрент? · Рейтинг и ограничения

    !ВНИМАНИЕ!
    Сайт не распространяет и не хранит электронные версии произведений, а занимается лишь лишь предоставлением доступа к создаваемому пользователями каталогу ссылок на торрент-файлы, которые содержат только списки хеш-сумм, убедительная просьба с жалобами обращаться напрямую к пользователю. Файлы для обмена на трекере предоставлены пользователями сайта, и администрация не несёт ответственности за их содержание. Просьба не заливать файлы, защищенные авторскими правами, а также файлы нелегального содержания!


    _________________
    [Профиль] [ЛС]
    Показать сообщения:    
    Ответить на тему

    Текущее время: Сегодня, в 17:44

    Часовой пояс: GMT + 2



    Вы не можете начинать темы
    Вы не можете отвечать на сообщения
    Вы не можете редактировать свои сообщения
    Вы не можете удалять свои сообщения
    Вы не можете голосовать в опросах
    Вы не можете прикреплять файлы к сообщениям
    Вы не можете скачивать файлы