BitTorrentTracker PerecTracker.org
BitTorrentTracker PerecTracker.org
    
Регистрация  ·  Вход
 
 · 
Забыли пароль?

  • 10 Правил / 10 Правил как соблазнить девушку / 10 Pravidel Jak Sbalit Holku (Карел Янак / Karel Janak) [2014, Чехия, романтическая мелодрама, комедия, HDRip] Sub Rus + Original Cze

    Ответить на тему
     
    Автор Сообщение

    Light

    Создавать темы 18-Мар-2015 07:55

           

    [Цитировать]

    10 ПРАВИЛ / 10 ПРАВИЛ КАК СОБЛАЗНИТЬ ДЕВУШКУ / 10 PRAVIDEL JAK SBALIT HOLKU
    Страна: Чехия
    Жанр: романтическая мелодрама, комедия
    Год выпуска: 2014
    Продолжительность: 01:36:20
    Перевод: Субтитры
    Cубтитры: русские
    Оригинальная аудиодорожка: чешский
    Режиссер: Карел Янак / Karel Janák
    В ролях: Кристина Сваринска, Мирослав Донутил, Ян Долански, Ладислав Жупанич,
    Анна Шишкова, Якуб Прахар, Жерар Робер Гратадур, Мартин Странский,
    Тереза Нвотова, Мартин Доленски, Матоуш Рамл, Вероника Кубаржова и другие.
    Описание: Герой фильма Марек влюбляется в потрясающей красоты девушку. Но как
    завоевать ее сердце, ведь он обычный студент, обожающий гороскопы. Друзья решают
    помочь ему, обратившись за помощью к его отцу, написавшему бестселлер "Как покорить девушку".
    Доп. информация: Впервые на Рутрекере
    Перевод: Maxj
    Видео:Maxj
    Отдельная благодарность dsa69-2, М_Васильев, edus67. Ну они сами знают за что)
    По поводу озвучки,если вдруг - писать в личку.
    Сэмпл: https://www.sendspace.com/file/mpc9fz
    Качество видео: HDRip
    Формат видео: AVI
    Видео: 720x304 (2.35:1), 24 fps, XviD MPEG-4 ~1962 kbps avg
    Аудио: AC3, 48 KHz, 192 kb/s (2 ch)
    Формат субтитров: hardsub (неотключаемые)
    Доп. информация о субтитрах: перевод: Maxj

    MediaInfo

    D:\10 Pravidel Jak Sbalit Holku 2014_HDRip\10 Pravidel Jak Sbalit Holku 2014_HDRip.avi
    General
    Complete name : D:\10 Pravidel Jak Sbalit Holku 2014_HDRip\10 Pravidel Jak Sbalit Holku 2014_HDRip.avi
    Format : AVI
    Format/Info : Audio Video Interleave
    File size : 1.46 GiB
    Duration : 1h 36mn
    Overall bit rate : 2 163 Kbps
    Writing library : VirtualDub build 35576/release
    Video #0
    ID : 0
    Format : MPEG-4 Visual
    Format profile : Simple@L3
    Format settings, BVOP : 2
    Format settings, QPel : No
    Format settings, GMC : No warppoints
    Format settings, Matrix : Default (H.263)
    Codec ID : XVID
    Codec ID/Hint : XviD
    Duration : 1h 36mn
    Bit rate : 1 962 Kbps
    Width : 720 pixels
    Height : 304 pixels
    Display aspect ratio : 2.35:1
    Frame rate : 24.000 fps
    Color space : YUV
    Chroma subsampling : 4:2:0
    Bit depth : 8 bits
    Scan type : Progressive
    Compression mode : Lossy
    Bits/(Pixel*Frame) : 0.373
    Stream size : 1.32 GiB (91%)
    Writing library : XviD 1.1.0 Beta1 (UTC 2005-01-16)
    Audio #1
    ID : 1
    Format : AC-3
    Format/Info : Audio Coding 3
    Mode extension : CM (complete main)
    Format settings, Endianness : Big
    Codec ID : 2000
    Duration : 1h 36mn
    Bit rate mode : Constant
    Bit rate : 192 Kbps
    Channel(s) : 2 channels
    Channel positions : Front: L R
    Sampling rate : 48.0 KHz
    Bit depth : 16 bits
    Compression mode : Lossy
    Stream size : 132 MiB (9%)
    Alignment : Aligned on interleaves
    Interleave, duration : 42 ms (1.00 video frame)
    Interleave, preload duration : 512 ms

    Скриншот c названием фильма

    Скриншоты

    Пример субтитров

    скрытый текст

    482
    00:42:31,083 --> 00:42:32,707
    Ты выглядишь великолепно.
    483
    00:42:37,166 --> 00:42:41,207
    - Все самое лучшее.
    - Ничего себе, это прекрасно.
    484
    00:42:41,500 --> 00:42:44,540
    Однажды я покажу тебе, что
    там происходит.
    485
    00:42:45,791 --> 00:42:47,665
    Или мог бы предсказать тебе твою судьбу ??
    486
    00:42:47,791 --> 00:42:50,749
    Я вернусь через минуту. Подожди здесь.
    487
    00:42:51,041 --> 00:42:52,957
    Всего лучшего.
    488
    00:42:54,125 --> 00:42:56,374
    Молодой человек,а вас кто пригласил?
    489
    00:42:56,583 --> 00:42:59,082
    Стефани пригласила меня
    на свой день рождения.
    490
    00:42:59,958 --> 00:43:01,082
    Наша дочь.
    491
    00:43:01,750 --> 00:43:03,290
    Откуда вы её знаете ?
    492
    00:43:03,416 --> 00:43:07,582
    Ну из библиотеки, но мы встречались и раньше
    в автобусе, и в полицейском участке.
    493
    00:43:08,375 --> 00:43:10,707
    Это запутанная история.
    494
    00:43:11,250 --> 00:43:12,874
    Но я лучше пойду.
    495
    00:43:27,333 --> 00:43:30,832
    Филип позови Стефани,
    сейчас начнётся салют.
    496
    00:43:32,625 --> 00:43:34,874
    Это молодой человек с тобой?
    497
    00:43:35,041 --> 00:43:36,749
    Вы знакомы?
    498
    00:43:36,916 --> 00:43:40,249
    Я сейчас сверну косячок и мы узнаем друг дружку получше.
    499
    00:43:40,416 --> 00:43:41,457
    Нет.
    500
    00:43:41,791 --> 00:43:44,999
    Марееек! Это отличный парень!
    501
    00:43:45,666 --> 00:43:47,290
    Как давно вы знакомы друг с другом?
    502
    00:43:50,291 --> 00:43:51,165
    Стефани!
    503
    00:43:53,375 --> 00:43:54,415
    Извините.
    Скачать .torrent

    Скачать торрент-файл бесплатно и на максимальной скорости!

    Как скачивать? · Что такое торрент? · Рейтинг и ограничения

    !ВНИМАНИЕ!
    Сайт не распространяет и не хранит электронные версии произведений, а занимается лишь лишь предоставлением доступа к создаваемому пользователями каталогу ссылок на торрент-файлы, которые содержат только списки хеш-сумм, убедительная просьба с жалобами обращаться напрямую к пользователю. Файлы для обмена на трекере предоставлены пользователями сайта, и администрация не несёт ответственности за их содержание. Просьба не заливать файлы, защищенные авторскими правами, а также файлы нелегального содержания!


    _________________
    [Профиль] [ЛС]
    Показать сообщения:    
    Ответить на тему

    Текущее время: Сегодня, в 12:11

    Часовой пояс: GMT + 2



    Вы не можете начинать темы
    Вы не можете отвечать на сообщения
    Вы не можете редактировать свои сообщения
    Вы не можете удалять свои сообщения
    Вы не можете голосовать в опросах
    Вы не можете прикреплять файлы к сообщениям
    Вы не можете скачивать файлы