BitTorrentTracker PerecTracker.org
BitTorrentTracker PerecTracker.org
    
Регистрация  ·  Вход
 
 · 
Забыли пароль?

  • Холостячки в Вегасе / Best Night Ever (Джейсон Фридберг / Jason Friedberg, Аарон Зельцер / Aaron Seltzer) [2013, США, комедия, HDRip] MVO

    Ответить на тему
     
    Автор Сообщение

    Light

    Создавать темы 18-Мар-2015 07:55

           

    [Цитировать]

    Холостячки в Вегасе / Best Night Ever
    Страна: США / USA
    Жанр: комедия
    Год выпуска: 2013
    Продолжительность: 01:22:04
    Перевод : Профессиональный (многоголосый закадровый) Лицензия
    Cубтитры: нет
    Режиссер: Джейсон Фридберг / Jason Friedberg, Аарон Зельцер / Aaron SeltzerВ ролях:
    Дезри Холл / Desiree Hall - Claire
    Эдвина Ричард / Edwina Ritchard - Zoe
    Саманта Колберн / Samantha Colburn - Leslie
    Криста Флэнеган / Crista Flanagan - Janet
    Энди Фавро / Andy Favreau - Rick
    Ник Стил / Nick Steele - Trevor
    Линетт Дюпри / Lynette DuPree - Linda
    и др.
    Описание: Перед тем как выйти замуж, молодая красотка отправляется с тремя лучшими подружками на свою последнюю холостяцкую вечеринку в Лас-Вегас. Все, что ни случается, к лучшему — гласит народная мудрость. Неужели это так, даже если все сумасшествие, происходящее в Лас-Вегасе, будет записано на видео?..Доп. информация:
    Качество видео: HDRip [BDRip 1080p]
    Формат видео: AVI
    Видео кодек: XviD
    Аудио кодек: AC3
    Видео: 720x400 (1,80:1), 23,976 fps, XviD, 1927 kbps avg, 0.279 bit/pixel
    Аудио : Rus 448.00 kbps avg, 48,0 kHz, 3/2 (L,C,R,l,r) + LFE ch, AC3 Dolby Digital MVO

    MediaInfo


    Общее
    Полное имя : C:\ Best Night Ever.2013.MVO.HDRip.by medvezhonokkkk.avi.avi
    Формат : AVI
    Формат/Информация : Audio Video Interleave
    Размер файла : 1,37 Гбайт
    Продолжительность : 1 ч. 22 м.
    Общий поток : 2385 Кбит/сек
    Программа кодирования : VirtualDubMod 1.5.10.2 (build 2540/release)
    Библиотека кодирования : VirtualDubMod build 2540/release
    Видео
    Идентификатор : 0
    Формат : MPEG-4 Visual
    Профиль формата : Advanced Simple@L5
    Параметр BVOP формата : 2
    Параметр QPel формата : Нет
    Параметр GMC формата : Без точки перехода
    Параметр матрицы формата : Выборочная
    Идентификатор кодека : XVID
    Идентификатор кодека/Подсказка : XviD
    Продолжительность : 1 ч. 22 м.
    Битрейт : 1927 Кбит/сек
    Ширина : 720 пикселей
    Высота : 400 пикселей
    Соотношение сторон : 16:9
    Частота кадров : 23,976 кадра/сек
    Цветовое пространство : YUV
    Субдискретизация насыщенности : 4:2:0
    Битовая глубина : 8 бит
    Тип развёртки : Прогрессивная
    Метод сжатия : С потерями
    Бит/(Пиксели*Кадры) : 0.279
    Размер потока : 1,11 Гбайт (81%)
    Библиотека кодирования : XviD 1.2.1 (UTC 2008-12-04)
    Аудио
    Идентификатор : 1
    Формат : AC-3
    Формат/Информация : Audio Coding 3
    Расширение режима : CM (complete main)
    Параметр Endianness формата : Big
    Идентификатор кодека : 2000
    Продолжительность : 1 ч. 22 м.
    Вид битрейта : Постоянный
    Битрейт : 448 Кбит/сек
    Каналы : 6 каналов
    Расположение каналов : Front: L C R, Side: L R, LFE
    Частота : 48,0 КГц
    Битовая глубина : 16 бит
    Метод сжатия : С потерями
    Размер потока : 263 Мбайт (19%)
    Выравнивание : Разделение по промежуткам
    Продолжительность промежутка : 42 мс. (1,00 видеокадр)
    Время предзагрузки промежутка : 500 мс.

    Скриншот c названием фильма

    Скриншоты

    ВНИМАНИЕ!!!ФИЛЬМ НЕ РЕКОМЕНДУЕТСЯ ЛИЦАМ МЛАДШЕ 18 ЛЕТ!!!
    Скачать .torrent

    Скачать торрент-файл бесплатно и на максимальной скорости!

    Как скачивать? · Что такое торрент? · Рейтинг и ограничения

    !ВНИМАНИЕ!
    Сайт не распространяет и не хранит электронные версии произведений, а занимается лишь лишь предоставлением доступа к создаваемому пользователями каталогу ссылок на торрент-файлы, которые содержат только списки хеш-сумм, убедительная просьба с жалобами обращаться напрямую к пользователю. Файлы для обмена на трекере предоставлены пользователями сайта, и администрация не несёт ответственности за их содержание. Просьба не заливать файлы, защищенные авторскими правами, а также файлы нелегального содержания!


    _________________
    [Профиль] [ЛС]
    Показать сообщения:    
    Ответить на тему

    Текущее время: Сегодня, в 02:03

    Часовой пояс: GMT + 2



    Вы не можете начинать темы
    Вы не можете отвечать на сообщения
    Вы не можете редактировать свои сообщения
    Вы не можете удалять свои сообщения
    Вы не можете голосовать в опросах
    Вы не можете прикреплять файлы к сообщениям
    Вы не можете скачивать файлы