BitTorrentTracker PerecTracker.org
BitTorrentTracker PerecTracker.org
    
Регистрация  ·  Вход
 
 · 
Забыли пароль?

  • Голыми, как пришли / Naked As We Came (Ричард Лемэй / Richard LeMay) [2013, США, драма, DVDRip] VO (datynet) + Sub Rus + Original Eng

    Ответить на тему
     
    Автор Сообщение

    Light

    Создавать темы 17-Мар-2015 02:31

           

    [Цитировать]

    Голыми, как пришли / Naked As We Came
    Страна: США
    Жанр: драма
    Год выпуска: 2013
    Продолжительность: 01:26:09
    Перевод: Одноголосый закадровый datynet
    Cубтитры: русские
    Оригинальная аудиодорожка: английский
    Режиссер: Ричард Лемэй / Richard LeMay
    В ролях: Бенджамин Вивер, Райан Виджилант, Кармин Алерс, Лу Мак-Уильямс
    Описание: После тревожного телефонного звонка Лора и её брат Эллиот отправляются в семейный загородный дом к своей матери, Лилли. Она смертельно больна и живёт с красивым незнакомцем по имени Тед. Видя мать в таком состоянии, Лора и Эллиот начинают понимать, что их собственные жизненные пути зашли в тупик. Лилли пытается убедить детей, что глупо и бессмысленно ради материальных благ отказываться от своей мечты. Ведь как сказал один мудрец, все мы в конце уйдём такими же, как пришли - голыми и одинокими...

    Доп. информация:
    Перевод: Antonio
    Сэмпл: http://multi-up.com
    Качество видео: DVDRip
    Формат видео: AVI
    Видео: Xvid 720x304 23.98fps 1011Kbps
    Аудио 1: MPEG Audio Layer 3 44100Hz stereo 192Kbps [русский]
    Аудио 2: MPEG Audio Layer 3 44100Hz stereo 192Kbps [английский, отдельно]
    Формат субтитров: softsub (SRT)

    MediaInfo

    General
    Complete name : D:\TORRENTS\Голыми как пришли\Голыми как пришли.avi
    Format : AVI
    Format/Info : Audio Video Interleave
    File size : 748 MiB
    Duration : 1h 26mn
    Overall bit rate : 1 213 Kbps
    Video
    ID : 0
    Format : MPEG-4 Visual
    Format profile : Advanced Simple@L5
    Format settings, BVOP : 2
    Format settings, QPel : No
    Format settings, GMC : No warppoints
    Format settings, Matrix : Default (H.263)
    Codec ID : XVID
    Codec ID/Hint : XviD
    Duration : 1h 26mn
    Bit rate : 1 012 Kbps
    Width : 720 pixels
    Height : 304 pixels
    Display aspect ratio : 2.35:1
    Frame rate : 23.976 fps
    Color space : YUV
    Chroma subsampling : 4:2:0
    Bit depth : 8 bits
    Scan type : Progressive
    Compression mode : Lossy
    Bits/(Pixel*Frame) : 0.193
    Stream size : 623 MiB (83%)
    Writing library : XviD 1.2.1 (UTC 2008-12-04)
    Audio
    ID : 1
    Format : MPEG Audio
    Format version : Version 1
    Format profile : Layer 3
    Mode : Joint stereo
    Mode extension : MS Stereo
    Codec ID : 55
    Codec ID/Hint : MP3
    Duration : 1h 26mn
    Source duration : 1h 26mn
    Bit rate mode : Constant
    Bit rate : 192 Kbps
    Channel(s) : 2 channels
    Sampling rate : 44.1 KHz
    Compression mode : Lossy
    Stream size : 118 MiB (16%)
    Alignment : Aligned on interleaves
    Interleave, duration : 42 ms (1.00 video frame)
    Writing library : LAME3.99r
    Encoding settings : -m j -V 4 -q 3 -lowpass 18.6 -b 192

    Скриншот c названием фильма

    Скриншоты

    Скачать .torrent

    Скачать торрент-файл бесплатно и на максимальной скорости!

    Как скачивать? · Что такое торрент? · Рейтинг и ограничения

    !ВНИМАНИЕ!
    Сайт не распространяет и не хранит электронные версии произведений, а занимается лишь лишь предоставлением доступа к создаваемому пользователями каталогу ссылок на торрент-файлы, которые содержат только списки хеш-сумм, убедительная просьба с жалобами обращаться напрямую к пользователю. Файлы для обмена на трекере предоставлены пользователями сайта, и администрация не несёт ответственности за их содержание. Просьба не заливать файлы, защищенные авторскими правами, а также файлы нелегального содержания!


    _________________
    [Профиль] [ЛС]
    Показать сообщения:    
    Ответить на тему

    Текущее время: Сегодня, в 14:12

    Часовой пояс: GMT + 2



    Вы не можете начинать темы
    Вы не можете отвечать на сообщения
    Вы не можете редактировать свои сообщения
    Вы не можете удалять свои сообщения
    Вы не можете голосовать в опросах
    Вы не можете прикреплять файлы к сообщениям
    Вы не можете скачивать файлы