Register  ·  Log in
Forgot password?

  • Потерянный рай / Escobar: Paradise Lost (Андреа Ди Стефано / Andrea Di Stefano) [2014, Франция, Испания, Бельгия, Панама, Криминал, триллер, драма, HDRip] DVO (RAIM & GUGU)

    Reply to topic
    Author Message


    Post 17-Mar-2015 03:31



    Потерянный рай / Escobar: Paradise Lost«Добро пожаловать в семью»-Страна: Франция, Испания, Бельгия, Панама
    Жанр: Криминал, триллер, драма
    Год выпуска: 2014
    Продолжительность: 01:59:31-Перевод: Любительский (двухголосый закадровый) [RAIM & GUGU]
    Cубтитры: нет-Режиссер: Андреа Ди Стефано / Andrea Di Stefano-В ролях: Бенисио Дель Торо, Джош Хатчерсон, Клаудия Траисак, Брэйди Корбет, Карлос Бардем, Ана Жирардо, Мике Морено, Лаура Лондоньо, Лорен Зимски, Россана Урибе-Описание: Молодой серфер Ник приезжает к своему брату в Колумбию, где по уши влюбляется в местную девушку по имени Мария и купается в счастье ровно до тех пор, пока Мария не знакомит его со своим дядей — знаменитым наркобароном Пабло Эскобаром.-Sample | IMDB | КиноПоиск-Тип релиза: HDRip [исх. Escobar Paradise Lost 2014 1080p BluRay x264 DTS-RARBG]
    Формат видео: AVI-Видео: 720x304 (2.37:1), 24.000 fps, XviD build 50, 1552 kbps avg, 0.29 bit/pixel
    Аудио: 48 kHz, AC3 Dolby Digital, 2/0 (L,R) ch, 192.00 kbps avg [Russian_DVO]-Релиз группы:


    Complete name : D:\Мои релизы\Escobar Paradise Lost_HDRip_RG_All_Films.avi
    Format : AVI
    Format/Info : Audio Video Interleave
    File size : 1.46 GiB
    Duration : 1h 59mn
    Overall bit rate : 1 754 Kbps
    Writing application : VirtualDubMod | || (build 2550/release)
    Writing library : VirtualDubMod build 2550/release
    ID : 0
    Format : MPEG-4 Visual
    Format profile : Advanced Simple@L5
    Format settings, BVOP : Yes
    Format settings, QPel : No
    Format settings, GMC : No warppoints
    Format settings, Matrix : Custom
    Codec ID : XVID
    Codec ID/Hint : XviD
    Duration : 1h 59mn
    Bit rate : 1 552 Kbps
    Width : 720 pixels
    Height : 304 pixels
    Display aspect ratio : 2.35:1
    Frame rate : 24.000 fps
    Color space : YUV
    Chroma subsampling : 4:2:0
    Bit depth : 8 bits
    Scan type : Progressive
    Compression mode : Lossy
    Bits/(Pixel*Frame) : 0.296
    Stream size : 1.30 GiB (89%)
    Writing library : XviD 1.2.1 (UTC 2008-12-04)
    ID : 1
    Format : AC-3
    Format/Info : Audio Coding 3
    Mode extension : CM (complete main)
    Codec ID : 2000
    Duration : 1h 59mn
    Bit rate mode : Constant
    Bit rate : 192 Kbps
    Channel(s) : 2 channels
    Channel positions : Front: L R
    Sampling rate : 48.0 KHz
    Bit depth : 16 bits
    Compression mode : Lossy
    Stream size : 164 MiB (11%)
    Alignment : Split accross interleaves
    Interleave, duration : 42 ms (1.00 video frame)
    Interleave, preload duration : 500 ms


    Download .torrent

    Download free and at maximum speed!

    How to Download? · What is a torrent? · Ratings and Limitations

    The site does not extend and does not store electronic(digital) versions of products, and only gives access to a reference catalogue created by users on torrent-files which contain only lists of the hash-sums, the earnest entreaty, with complaints(abuse) to access directly to the user. Files for an exchange on tracker are given by users of a site, and the administration does not bear the responsibility for their maintenance. The request to not fill in the files protected by copyrights, and also files of the illegal maintenance!

    [Profile] [PM]
    Display posts from previous:    
    Reply to topic

    The time now is: Today 06:16

    All times are GMT + 3 Hours

    You cannot post new topics in this forum
    You cannot reply to topics in this forum
    You cannot edit your posts in this forum
    You cannot delete your posts in this forum
    You cannot vote in polls in this forum
    You cannot attach files in this forum
    You cannot download files in this forum