Register  ·  Log in
Forgot password?

  • Потерянный рай / Escobar: Paradise Lost (Андреа Ди Стефано / Andrea Di Stefano) [2014, Франция, Испания, Бельгия, Панама, Криминал, триллер, драма, HDRip] DVO (RAIM & GUGU)

    Reply to topic
    Author Message


    Post 17-Mar-2015 03:31



    Потерянный рай / Escobar: Paradise Lost«Добро пожаловать в семью»-Страна: Франция, Испания, Бельгия, Панама
    Жанр: Криминал, триллер, драма
    Год выпуска: 2014
    Продолжительность: 01:59:31-Перевод: Любительский (двухголосый закадровый) [RAIM & GUGU]
    Cубтитры: нет-Режиссер: Андреа Ди Стефано / Andrea Di Stefano-В ролях: Бенисио Дель Торо, Джош Хатчерсон, Клаудия Траисак, Брэйди Корбет, Карлос Бардем, Ана Жирардо, Мике Морено, Лаура Лондоньо, Лорен Зимски, Россана Урибе-Описание: Молодой серфер Ник приезжает к своему брату в Колумбию, где по уши влюбляется в местную девушку по имени Мария и купается в счастье ровно до тех пор, пока Мария не знакомит его со своим дядей — знаменитым наркобароном Пабло Эскобаром.-Sample | IMDB | КиноПоиск-Тип релиза: HDRip [исх. Escobar Paradise Lost 2014 1080p BluRay x264 DTS-RARBG]
    Формат видео: AVI-Видео: 608x256 (2.38:1), 24.000 fps, XviD build 50, 742 kbps avg, 0.20 bit/pixel
    Аудио: 48 kHz, MPEG Layer 3, 2 ch, 128.00 kbps avg [Russian_DVO]-Релиз группы:


    Complete name : D:\Мои релизы\Escobar Paradise Lost_HDRip_[745]_RG_All_Films.avi
    Format : AVI
    Format/Info : Audio Video Interleave
    File size : 752 MiB
    Duration : 1h 59mn
    Overall bit rate : 880 Kbps
    Writing application : VirtualDubMod | || (build 2550/release)
    Writing library : VirtualDubMod build 2550/release
    ID : 0
    Format : MPEG-4 Visual
    Format profile : Advanced Simple@L5
    Format settings, BVOP : Yes
    Format settings, QPel : No
    Format settings, GMC : No warppoints
    Format settings, Matrix : Custom
    Codec ID : XVID
    Codec ID/Hint : XviD
    Duration : 1h 59mn
    Bit rate : 742 Kbps
    Width : 608 pixels
    Height : 256 pixels
    Display aspect ratio : 2.35:1
    Frame rate : 24.000 fps
    Color space : YUV
    Chroma subsampling : 4:2:0
    Bit depth : 8 bits
    Scan type : Progressive
    Compression mode : Lossy
    Bits/(Pixel*Frame) : 0.199
    Stream size : 635 MiB (84%)
    Writing library : XviD 1.2.1 (UTC 2008-12-04)
    ID : 1
    Format : MPEG Audio
    Format version : Version 1
    Format profile : Layer 3
    Codec ID : 55
    Codec ID/Hint : MP3
    Duration : 1h 59mn
    Bit rate mode : Constant
    Bit rate : 128 Kbps
    Channel(s) : 2 channels
    Sampling rate : 48.0 KHz
    Compression mode : Lossy
    Stream size : 109 MiB (15%)
    Alignment : Aligned on interleaves
    Interleave, duration : 42 ms (1.00 video frame)
    Interleave, preload duration : 504 ms
    Writing library : LAME3.98r
    Encoding settings : -m s -V 4 -q 2 -lowpass 17 -b 128


    Download .torrent

    Download free and at maximum speed!

    How to Download? · What is a torrent? · Ratings and Limitations

    The site does not extend and does not store electronic(digital) versions of products, and only gives access to a reference catalogue created by users on torrent-files which contain only lists of the hash-sums, the earnest entreaty, with complaints(abuse) to access directly to the user. Files for an exchange on tracker are given by users of a site, and the administration does not bear the responsibility for their maintenance. The request to not fill in the files protected by copyrights, and also files of the illegal maintenance!

    [Profile] [PM]
    Display posts from previous:    
    Reply to topic

    The time now is: Today 06:41

    All times are GMT + 3 Hours

    You cannot post new topics in this forum
    You cannot reply to topics in this forum
    You cannot edit your posts in this forum
    You cannot delete your posts in this forum
    You cannot vote in polls in this forum
    You cannot attach files in this forum
    You cannot download files in this forum