Register  ·  Log in
Forgot password?

  • Инопланетное вторжение: Битва за Лос-Анджелес / Battle Los Angeles (Джонатан Либесман / Jonathan Liebesman) [2011, США, Фантастика, боевик, DVB] [Локализованный русский видеоряд] [Open Matte] DUB

    Reply to topic
    Author Message


    Post 17-Mar-2015 03:31



    Инопланетное вторжение: Битва за Лос-Анджелес / Battle Los Angeles
    Страна: США
    Жанр: Фантастика, боевик
    Год выпуска: 2011
    Продолжительность: 01:46:28
    Перевод: Дублированный
    Cубтитры: нет
    Оригинальная аудиодорожка: нет
    Режиссер: Джонатан Либесман / Jonathan Liebesman
    В ролях: Аарон Экхарт, Мишель Родригес, Бриджет Мойнэхэн, Майкл Пенья, Рамон Родригес, Уилл Ротхаар, Кори Хардрикт, Джим Пэррак, Джино Энтони Песи, Не-Ё и другие.
    Описание: Землю пытается захватить инопланетная цивилизация, истребляя все живое на своем пути. По всему миру начинается широкомасштабное сражение человечества за выживание. Отряду морских пехотинцев поручено во что бы то ни стало освободить осажденный город ангелов от таинственных и смертоносных тварей…
    Качество видео: DVB
    Формат видео: MPEG-PS
    Видео: MPEG2 Video 720x576 (4:3) 25fps 2193Kbps
    Аудио: MPEG Audio 48000Hz stereo 192kbps


    GeneralComplete name : H:\раздачи\Инопланетное вторжение. Битва за Лос-Анджелес.mpgFormat : MPEG-PSFile size : 1.81 GiBDuration : 1h 46mnOverall bit rate mode : VariableOverall bit rate : 2 433 KbpsWriting library : encoded by TMPGEnc MPEG Editor 2.0 Version.
    VideoID : 224 (0xE0)Format : MPEG VideoFormat version : Version 2Format profile : Main@MainFormat settings, BVOP : YesFormat settings, Matrix : CustomFormat settings, GOP : VariableFormat settings, picture structure : FrameDuration : 1h 46mnBit rate mode : VariableBit rate : 2 193 KbpsMaximum bit rate : 15.0 MbpsWidth : 720 pixelsHeight : 576 pixelsDisplay aspect ratio : 4:3Frame rate : 25.000 fpsStandard : PALColor space : YUVChroma subsampling : 4:2:0Bit depth : 8 bitsScan type : InterlacedScan order : Top Field FirstCompression mode : LossyBits/(Pixel*Frame) : 0.212Time code of first frame : 00:00:00:00Time code source : Group of pictures headerStream size : 1.63 GiB (90%)Writing library : TMPGEnc MPEG Editor coefficients : BT.601
    AudioID : 192 (0xC0)Format : MPEG AudioFormat version : Version 1Format profile : Layer 2Duration : 1h 46mnBit rate mode : ConstantBit rate : 192 KbpsChannel(s) : 2 channelsSampling rate : 48.0 KHzCompression mode : LossyStream size : 146 MiB (8%)

    Скриншот c названием фильма


    Сравнения кадра с BDRip
    Кроп DVB для наглядности:
    информация для оформления скопипастена вежливо позаимствована с кинопоиска.
    Download .torrent

    Download free and at maximum speed!

    How to Download? · What is a torrent? · Ratings and Limitations

    The site does not extend and does not store electronic(digital) versions of products, and only gives access to a reference catalogue created by users on torrent-files which contain only lists of the hash-sums, the earnest entreaty, with complaints(abuse) to access directly to the user. Files for an exchange on tracker are given by users of a site, and the administration does not bear the responsibility for their maintenance. The request to not fill in the files protected by copyrights, and also files of the illegal maintenance!

    [Profile] [PM]
    Display posts from previous:    
    Reply to topic

    The time now is: Today 18:33

    All times are GMT + 3 Hours

    You cannot post new topics in this forum
    You cannot reply to topics in this forum
    You cannot edit your posts in this forum
    You cannot delete your posts in this forum
    You cannot vote in polls in this forum
    You cannot attach files in this forum
    You cannot download files in this forum