BitTorrentTracker PerecTracker.org
BitTorrentTracker PerecTracker.org
    
Регистрация  ·  Вход
 
 · 
Забыли пароль?

  • Инопланетное вторжение: Битва за Лос-Анджелес / Battle Los Angeles (Джонатан Либесман / Jonathan Liebesman) [2011, США, Фантастика, боевик, DVB] [Локализованный русский видеоряд] [Open Matte] DUB

    Ответить на тему
     
    Автор Сообщение

    Light

    Создавать темы 17-Мар-2015 02:31

           

    [Цитировать]

    Инопланетное вторжение: Битва за Лос-Анджелес / Battle Los Angeles
    Страна: США
    Жанр: Фантастика, боевик
    Год выпуска: 2011
    Продолжительность: 01:46:28
    Перевод: Дублированный
    Cубтитры: нет
    Оригинальная аудиодорожка: нет
    Режиссер: Джонатан Либесман / Jonathan Liebesman
    В ролях: Аарон Экхарт, Мишель Родригес, Бриджет Мойнэхэн, Майкл Пенья, Рамон Родригес, Уилл Ротхаар, Кори Хардрикт, Джим Пэррак, Джино Энтони Песи, Не-Ё и другие.
    Описание: Землю пытается захватить инопланетная цивилизация, истребляя все живое на своем пути. По всему миру начинается широкомасштабное сражение человечества за выживание. Отряду морских пехотинцев поручено во что бы то ни стало освободить осажденный город ангелов от таинственных и смертоносных тварей…
    Сэмпл: https://yadi.sk/i/Q6kzZBOkfJ49q
    Качество видео: DVB
    Формат видео: MPEG-PS
    Видео: MPEG2 Video 720x576 (4:3) 25fps 2193Kbps
    Аудио: MPEG Audio 48000Hz stereo 192kbps

    MediaInfo

    GeneralComplete name : H:\раздачи\Инопланетное вторжение. Битва за Лос-Анджелес.mpgFormat : MPEG-PSFile size : 1.81 GiBDuration : 1h 46mnOverall bit rate mode : VariableOverall bit rate : 2 433 KbpsWriting library : encoded by TMPGEnc MPEG Editor 2.0 Version. 2.2.8.177
    VideoID : 224 (0xE0)Format : MPEG VideoFormat version : Version 2Format profile : Main@MainFormat settings, BVOP : YesFormat settings, Matrix : CustomFormat settings, GOP : VariableFormat settings, picture structure : FrameDuration : 1h 46mnBit rate mode : VariableBit rate : 2 193 KbpsMaximum bit rate : 15.0 MbpsWidth : 720 pixelsHeight : 576 pixelsDisplay aspect ratio : 4:3Frame rate : 25.000 fpsStandard : PALColor space : YUVChroma subsampling : 4:2:0Bit depth : 8 bitsScan type : InterlacedScan order : Top Field FirstCompression mode : LossyBits/(Pixel*Frame) : 0.212Time code of first frame : 00:00:00:00Time code source : Group of pictures headerStream size : 1.63 GiB (90%)Writing library : TMPGEnc MPEG Editor 2.2.8.177Matrix coefficients : BT.601
    AudioID : 192 (0xC0)Format : MPEG AudioFormat version : Version 1Format profile : Layer 2Duration : 1h 46mnBit rate mode : ConstantBit rate : 192 KbpsChannel(s) : 2 channelsSampling rate : 48.0 KHzCompression mode : LossyStream size : 146 MiB (8%)

    Скриншот c названием фильма

    Скриншоты

    Сравнения кадра с BDRip

    http://screenshotcomparison.com/comparison/116601
    Кроп DVB для наглядности:
    http://screenshotcomparison.com/comparison/116604
    информация для оформления скопипастена вежливо позаимствована с кинопоиска.
    Скачать .torrent

    Скачать торрент-файл бесплатно и на максимальной скорости!

    Как скачивать? · Что такое торрент? · Рейтинг и ограничения

    !ВНИМАНИЕ!
    Сайт не распространяет и не хранит электронные версии произведений, а занимается лишь лишь предоставлением доступа к создаваемому пользователями каталогу ссылок на торрент-файлы, которые содержат только списки хеш-сумм, убедительная просьба с жалобами обращаться напрямую к пользователю. Файлы для обмена на трекере предоставлены пользователями сайта, и администрация не несёт ответственности за их содержание. Просьба не заливать файлы, защищенные авторскими правами, а также файлы нелегального содержания!


    _________________
    [Профиль] [ЛС]
    Показать сообщения:    
    Ответить на тему

    Текущее время: Сегодня, в 11:37

    Часовой пояс: GMT + 2



    Вы не можете начинать темы
    Вы не можете отвечать на сообщения
    Вы не можете редактировать свои сообщения
    Вы не можете удалять свои сообщения
    Вы не можете голосовать в опросах
    Вы не можете прикреплять файлы к сообщениям
    Вы не можете скачивать файлы