BitTorrentTracker PerecTracker.org
BitTorrentTracker PerecTracker.org
    
Регистрация  ·  Вход
 
 · 
Забыли пароль?

  • Вернись ко мне / Come Back to Me (Пол Лейден / Paul Leyden) [2014, США, Ужасы, DVDRip] VO

    Ответить на тему
     
    Автор Сообщение

    Light

    Создавать темы 17-Мар-2015 02:31

           

    [Цитировать]

    Вернись ко мне / Come Back to Me
    Страна: США
    Жанр: Ужасы
    Год выпуска: 2014
    Продолжительность: 01:35:05
    Перевод: Одноголосый закадровый
    Cубтитры: нет
    Режиссер: Пол Лейден / Paul Leyden
    В ролях: Кэролайн Клементс, Лаура Гордон, Нэйтан Кийес, Мэтт Пассмор, Brian Patacca, Стив Риззо, Alexandra Straus, Кэти Уолдер, Мойра Уэст и др.
    Описание: Приходя в себя после автокатастрофы, молодожены Сара и Джош обнаруживают, что в доме по соседству поселился чудаковатый парень по имени Дел. Сразу после этого каждую ночь Сару стали преследовать кошмары, в которых ее с мужем жестоко убивают, а по утру их дом просто сверкает чистотой. Пытаясь разобраться в ситуации, Сара начинает подозревать, что умирает каждую ночь она не только во сне...
    Доп. информация: Фильм снят по роману Рэта Джеймса Уайта “Resurrectionist”.
    Сэмпл: http://multi-up.com/1038599
    Качество видео: DVDRip
    Формат видео: AVI
    Закадровое озвучание и перевод: Роман Коточигов
    Сведение звука: Виталий Емельянов (ViruseProject)
    Видео: 640x272 (2.35:1), 23.976 fps, XviD build 50 ~895 kbps avg, 0.21 bit/pixel
    Аудио: 48 kHz, MPEG Layer 3, 2 ch, ~192.00 kbps avg

    MediaInfo

    General
    Complete name : E:\ОЗВУЧКА\Come.Back.To.Me.2014.DVDRip.ViruseProject.avi
    Format : AVI
    Format/Info : Audio Video Interleave
    File size : 746 MiB
    Duration : 1h 35mn
    Overall bit rate : 1 097 Kbps
    Writing application : VirtualDubMod 1.5.10.2 (build 2540/release)
    Writing library : VirtualDubMod build 2540/release
    Video
    ID : 0
    Format : MPEG-4 Visual
    Format profile : Advanced Simple@L5
    Format settings, BVOP : 2
    Format settings, QPel : No
    Format settings, GMC : No warppoints
    Format settings, Matrix : Default (H.263)
    Codec ID : XVID
    Codec ID/Hint : XviD
    Duration : 1h 35mn
    Bit rate : 896 Kbps
    Width : 640 pixels
    Height : 272 pixels
    Display aspect ratio : 2.35:1
    Frame rate : 23.976 fps
    Color space : YUV
    Chroma subsampling : 4:2:0
    Bit depth : 8 bits
    Scan type : Progressive
    Compression mode : Lossy
    Bits/(Pixel*Frame) : 0.215
    Stream size : 609 MiB (82%)
    Writing library : XviD 1.2.1 (UTC 2008-12-04)
    Audio
    ID : 1
    Format : MPEG Audio
    Format version : Version 1
    Format profile : Layer 3
    Mode : Joint stereo
    Mode extension : MS Stereo
    Codec ID : 55
    Codec ID/Hint : MP3
    Duration : 1h 35mn
    Bit rate mode : Constant
    Bit rate : 192 Kbps
    Channel(s) : 2 channels
    Sampling rate : 48.0 KHz
    Compression mode : Lossy
    Stream size : 131 MiB (17%)
    Alignment : Aligned on interleaves
    Interleave, duration : 42 ms (1.00 video frame)
    Interleave, preload duratio : 504 ms

    Скриншот c названием фильма

    Скриншоты

    Скачать .torrent

    Скачать торрент-файл бесплатно и на максимальной скорости!

    Как скачивать? · Что такое торрент? · Рейтинг и ограничения

    !ВНИМАНИЕ!
    Сайт не распространяет и не хранит электронные версии произведений, а занимается лишь лишь предоставлением доступа к создаваемому пользователями каталогу ссылок на торрент-файлы, которые содержат только списки хеш-сумм, убедительная просьба с жалобами обращаться напрямую к пользователю. Файлы для обмена на трекере предоставлены пользователями сайта, и администрация не несёт ответственности за их содержание. Просьба не заливать файлы, защищенные авторскими правами, а также файлы нелегального содержания!


    _________________
    [Профиль] [ЛС]
    Показать сообщения:    
    Ответить на тему

    Текущее время: Сегодня, в 22:19

    Часовой пояс: GMT + 2



    Вы не можете начинать темы
    Вы не можете отвечать на сообщения
    Вы не можете редактировать свои сообщения
    Вы не можете удалять свои сообщения
    Вы не можете голосовать в опросах
    Вы не можете прикреплять файлы к сообщениям
    Вы не можете скачивать файлы