Register  ·  Log in
Forgot password?

  • Вернись ко мне / Come Back to Me (Пол Лейден / Paul Leyden) [2014, США, Ужасы, DVDRip] VO

    Reply to topic
    Author Message


    Post 17-Mar-2015 03:31



    Вернись ко мне / Come Back to Me
    Страна: США
    Жанр: Ужасы
    Год выпуска: 2014
    Продолжительность: 01:35:05
    Перевод: Одноголосый закадровый
    Cубтитры: нет
    Режиссер: Пол Лейден / Paul Leyden
    В ролях: Кэролайн Клементс, Лаура Гордон, Нэйтан Кийес, Мэтт Пассмор, Brian Patacca, Стив Риззо, Alexandra Straus, Кэти Уолдер, Мойра Уэст и др.
    Описание: Приходя в себя после автокатастрофы, молодожены Сара и Джош обнаруживают, что в доме по соседству поселился чудаковатый парень по имени Дел. Сразу после этого каждую ночь Сару стали преследовать кошмары, в которых ее с мужем жестоко убивают, а по утру их дом просто сверкает чистотой. Пытаясь разобраться в ситуации, Сара начинает подозревать, что умирает каждую ночь она не только во сне...
    Доп. информация: Фильм снят по роману Рэта Джеймса Уайта “Resurrectionist”.
    Качество видео: DVDRip
    Формат видео: AVI
    Закадровое озвучание и перевод: Роман Коточигов
    Сведение звука: Виталий Емельянов (ViruseProject)
    Видео: 640x272 (2.35:1), 23.976 fps, XviD build 50 ~895 kbps avg, 0.21 bit/pixel
    Аудио: 48 kHz, MPEG Layer 3, 2 ch, ~192.00 kbps avg


    Complete name : E:\ОЗВУЧКА\Come.Back.To.Me.2014.DVDRip.ViruseProject.avi
    Format : AVI
    Format/Info : Audio Video Interleave
    File size : 746 MiB
    Duration : 1h 35mn
    Overall bit rate : 1 097 Kbps
    Writing application : VirtualDubMod (build 2540/release)
    Writing library : VirtualDubMod build 2540/release
    ID : 0
    Format : MPEG-4 Visual
    Format profile : Advanced Simple@L5
    Format settings, BVOP : 2
    Format settings, QPel : No
    Format settings, GMC : No warppoints
    Format settings, Matrix : Default (H.263)
    Codec ID : XVID
    Codec ID/Hint : XviD
    Duration : 1h 35mn
    Bit rate : 896 Kbps
    Width : 640 pixels
    Height : 272 pixels
    Display aspect ratio : 2.35:1
    Frame rate : 23.976 fps
    Color space : YUV
    Chroma subsampling : 4:2:0
    Bit depth : 8 bits
    Scan type : Progressive
    Compression mode : Lossy
    Bits/(Pixel*Frame) : 0.215
    Stream size : 609 MiB (82%)
    Writing library : XviD 1.2.1 (UTC 2008-12-04)
    ID : 1
    Format : MPEG Audio
    Format version : Version 1
    Format profile : Layer 3
    Mode : Joint stereo
    Mode extension : MS Stereo
    Codec ID : 55
    Codec ID/Hint : MP3
    Duration : 1h 35mn
    Bit rate mode : Constant
    Bit rate : 192 Kbps
    Channel(s) : 2 channels
    Sampling rate : 48.0 KHz
    Compression mode : Lossy
    Stream size : 131 MiB (17%)
    Alignment : Aligned on interleaves
    Interleave, duration : 42 ms (1.00 video frame)
    Interleave, preload duratio : 504 ms

    Скриншот c названием фильма


    Download .torrent

    Download free and at maximum speed!

    How to Download? · What is a torrent? · Ratings and Limitations

    The site does not extend and does not store electronic(digital) versions of products, and only gives access to a reference catalogue created by users on torrent-files which contain only lists of the hash-sums, the earnest entreaty, with complaints(abuse) to access directly to the user. Files for an exchange on tracker are given by users of a site, and the administration does not bear the responsibility for their maintenance. The request to not fill in the files protected by copyrights, and also files of the illegal maintenance!

    [Profile] [PM]
    Display posts from previous:    
    Reply to topic

    The time now is: Today 17:18

    All times are GMT + 3 Hours

    You cannot post new topics in this forum
    You cannot reply to topics in this forum
    You cannot edit your posts in this forum
    You cannot delete your posts in this forum
    You cannot vote in polls in this forum
    You cannot attach files in this forum
    You cannot download files in this forum