Register  ·  Log in
Forgot password?

  • Игра (Абдеррахман Сиссако) [1988, Короткометражный, Драма, VHSRip]

    Reply to topic
    Author Message


    Post 16-Mar-2015 10:43



    Жанр: Короткометражный, Драма
    Год выпуска: 1988
    Продолжительность: 00:22:33
    Режиссёр: Абдеррахман Сиссако
    В ролях: А. Ходжаев, Х. Норлиев, Бечим Нуриев
    Описание: Где-то в пустыне идут бои. Отец Ахмеда возвращается на фронт после дня, проведенного с семьей. Тем временем соседские мальчишки играют... в войну.
    Доп. информация: Дипломная работа Абдеррахмана Сиссако, которую он сделал учась во ВГИКе.
    Перевел: Shuranator Озвучил: iPoh3G
    Качество видео: VHSRip
    Формат видео: AVI
    Видео: Video: Xvid 720x544 25fps 2052kbps [V: mpeg4 advanced simple profile, yuv420p, 720x544, 2052 kb/s]
    Аудио: Audio: MP3 48000Hz stereo 104kbps [A: mp3, 48000 Hz, stereo, 104 kb/s]


    Complete name : D:\загрузки\Игра-Le jeu (1988).avi
    Format : AVI
    Format/Info : Audio Video Interleave
    File size : 350 MiB
    Duration : 22mn 33s
    Overall bit rate mode : Variable
    Overall bit rate : 2 170 Kbps
    Writing application : VirtualDubMod (build 2178/release)
    Writing library : VirtualDubMod build 2178/release
    ID : 0
    Format : MPEG-4 Visual
    Format profile : Advanced Simple@L5
    Format settings, BVOP : 1
    Format settings, QPel : No
    Format settings, GMC : No warppoints
    Format settings, Matrix : Custom
    Codec ID : XVID
    Codec ID/Hint : XviD
    Duration : 22mn 33s
    Bit rate : 2 053 Kbps
    Width : 720 pixels
    Height : 544 pixels
    Display aspect ratio : 4:3
    Frame rate : 25.000 fps
    Color space : YUV
    Chroma subsampling : 4:2:0
    Bit depth : 8 bits
    Scan type : Progressive
    Compression mode : Lossy
    Bits/(Pixel*Frame) : 0.210
    Stream size : 331 MiB (95%)
    Writing library : XviD 64
    ID : 1
    Format : MPEG Audio
    Format version : Version 1
    Format profile : Layer 3
    Mode : Joint stereo
    Mode extension : MS Stereo
    Codec ID : 55
    Codec ID/Hint : MP3
    Duration : 22mn 33s
    Bit rate mode : Variable
    Bit rate : 105 Kbps
    Nominal bit rate : 128 Kbps
    Channel(s) : 2 channels
    Sampling rate : 48.0 KHz
    Compression mode : Lossy
    Stream size : 16.9 MiB (5%)
    Alignment : Aligned on interleaves
    Interleave, duration : 24 ms (0.60 video frame)
    Interleave, preload duratio : 539 ms
    Writing library : LAME3.98r
    Encoding settings : -m j -V 4 -q 2 -lowpass 17 --abr 128


    Download .torrent

    Download free and at maximum speed!

    How to Download? · What is a torrent? · Ratings and Limitations

    The site does not extend and does not store electronic(digital) versions of products, and only gives access to a reference catalogue created by users on torrent-files which contain only lists of the hash-sums, the earnest entreaty, with complaints(abuse) to access directly to the user. Files for an exchange on tracker are given by users of a site, and the administration does not bear the responsibility for their maintenance. The request to not fill in the files protected by copyrights, and also files of the illegal maintenance!

    [Profile] [PM]
    Display posts from previous:    
    Reply to topic

    The time now is: Today 23:18

    All times are GMT + 3 Hours

    You cannot post new topics in this forum
    You cannot reply to topics in this forum
    You cannot edit your posts in this forum
    You cannot delete your posts in this forum
    You cannot vote in polls in this forum
    You cannot attach files in this forum
    You cannot download files in this forum