BitTorrentTracker PerecTracker.org
BitTorrentTracker PerecTracker.org
    
Регистрация  ·  Вход
 
 · 
Забыли пароль?

  • Игра (Абдеррахман Сиссако) [1988, Короткометражный, Драма, VHSRip]

    Ответить на тему
     
    Автор Сообщение

    Light

    Создавать темы 16-Мар-2015 09:43

           

    [Цитировать]

    Игра
    Жанр: Короткометражный, Драма
    Год выпуска: 1988
    Продолжительность: 00:22:33
    Режиссёр: Абдеррахман Сиссако
    В ролях: А. Ходжаев, Х. Норлиев, Бечим Нуриев
    Описание: Где-то в пустыне идут бои. Отец Ахмеда возвращается на фронт после дня, проведенного с семьей. Тем временем соседские мальчишки играют... в войну.
    Доп. информация: Дипломная работа Абдеррахмана Сиссако, которую он сделал учась во ВГИКе.
    Перевел: Shuranator Озвучил: iPoh3G
    Семпл: http://multi-up.com/1038527
    Качество видео: VHSRip
    Формат видео: AVI
    Видео: Video: Xvid 720x544 25fps 2052kbps [V: mpeg4 advanced simple profile, yuv420p, 720x544, 2052 kb/s]
    Аудио: Audio: MP3 48000Hz stereo 104kbps [A: mp3, 48000 Hz, stereo, 104 kb/s]

    MediaInfo

    General
    Complete name : D:\загрузки\Игра-Le jeu (1988).avi
    Format : AVI
    Format/Info : Audio Video Interleave
    File size : 350 MiB
    Duration : 22mn 33s
    Overall bit rate mode : Variable
    Overall bit rate : 2 170 Kbps
    Writing application : VirtualDubMod 1.5.4.1 (build 2178/release)
    Writing library : VirtualDubMod build 2178/release
    Video
    ID : 0
    Format : MPEG-4 Visual
    Format profile : Advanced Simple@L5
    Format settings, BVOP : 1
    Format settings, QPel : No
    Format settings, GMC : No warppoints
    Format settings, Matrix : Custom
    Codec ID : XVID
    Codec ID/Hint : XviD
    Duration : 22mn 33s
    Bit rate : 2 053 Kbps
    Width : 720 pixels
    Height : 544 pixels
    Display aspect ratio : 4:3
    Frame rate : 25.000 fps
    Color space : YUV
    Chroma subsampling : 4:2:0
    Bit depth : 8 bits
    Scan type : Progressive
    Compression mode : Lossy
    Bits/(Pixel*Frame) : 0.210
    Stream size : 331 MiB (95%)
    Writing library : XviD 64
    Audio
    ID : 1
    Format : MPEG Audio
    Format version : Version 1
    Format profile : Layer 3
    Mode : Joint stereo
    Mode extension : MS Stereo
    Codec ID : 55
    Codec ID/Hint : MP3
    Duration : 22mn 33s
    Bit rate mode : Variable
    Bit rate : 105 Kbps
    Nominal bit rate : 128 Kbps
    Channel(s) : 2 channels
    Sampling rate : 48.0 KHz
    Compression mode : Lossy
    Stream size : 16.9 MiB (5%)
    Alignment : Aligned on interleaves
    Interleave, duration : 24 ms (0.60 video frame)
    Interleave, preload duratio : 539 ms
    Writing library : LAME3.98r
    Encoding settings : -m j -V 4 -q 2 -lowpass 17 --abr 128

    Скриншоты


    Скачать .torrent

    Скачать торрент-файл бесплатно и на максимальной скорости!

    Как скачивать? · Что такое торрент? · Рейтинг и ограничения

    !ВНИМАНИЕ!
    Сайт не распространяет и не хранит электронные версии произведений, а занимается лишь лишь предоставлением доступа к создаваемому пользователями каталогу ссылок на торрент-файлы, которые содержат только списки хеш-сумм, убедительная просьба с жалобами обращаться напрямую к пользователю. Файлы для обмена на трекере предоставлены пользователями сайта, и администрация не несёт ответственности за их содержание. Просьба не заливать файлы, защищенные авторскими правами, а также файлы нелегального содержания!


    _________________
    [Профиль] [ЛС]
    Показать сообщения:    
    Ответить на тему

    Текущее время: Сегодня, в 01:52

    Часовой пояс: GMT + 2



    Вы не можете начинать темы
    Вы не можете отвечать на сообщения
    Вы не можете редактировать свои сообщения
    Вы не можете удалять свои сообщения
    Вы не можете голосовать в опросах
    Вы не можете прикреплять файлы к сообщениям
    Вы не можете скачивать файлы