BitTorrentTracker PerecTracker.org
BitTorrentTracker PerecTracker.org
    
Регистрация  ·  Вход
 
 · 
Забыли пароль?

  • Испанская банда / La bande des Jotas (Маржан Сатрапи / Marjane Satrapi) [2012, Франция, Бельгия, криминальная комедия, DVB] Original (Fre) + Sub (rus)

    Ответить на тему
     
    Автор Сообщение

    Light

    Создавать темы 16-Мар-2015 01:19

           

    [Цитировать]

    Испанская банда
    La bande des Jotas-Страна: Франция, Бельгия
    Жанр: криминальная комедия
    Год выпуска: 2012
    Продолжительность: 01:14:04
    Перевод: Субтитры (перевод К.Семенюк, Éclair Group)
    Cубтитры: русские
    Оригинальная аудиодорожка: французский
    Режиссер: Маржан Сатрапи / Marjane SatrapiВ ролях: Маржан Сатрапи / Marjane Satrapi (La femme), Маттиас Рипа / Mattias Ripa (Nils), Стефан Рош / Stéphane Roche (Didier), Али Мафакери / Ali Mafakheri (José & Javier), Мария де Медейрос / Maria de Medeiros (Maria)
    Описание: Номинантка на "Оскар" за анимационный фильм "Персеполис" иранская писательница и художник, автор комиксов и книг для детей, кинорежиссёр Маржан Сатрапи собирает в этом фильме необычную троицу. Путаница в аэропорту сводит вместе двух друзей, готовящихся к турниру по бадминтону, и женщину в бегах от банды, убившей ее сестру…
    Доп. информация: TV5MONDE DVB-S
    Участник Rome Film Festival 2012; Göteborg International Film Festival 2013; Jerusalem Film Festival 2013; São Paulo International Film Festival 2013.

    Качество видео: DVB
    Формат видео: MKV
    Видео: MPEG Video 2, 704x576@1024x576 (16:9), 25 fps, ~2303 kbps avg, 0.227 bit/pixel
    Аудио: Французский (MPEG Audio 2, 2 ch, 48 kHz, ~192.00 kbps avg)
    Формат субтитров: hardsub (неотключаемые)

    MediaInfo

    ОбщееУникальный идентификатор : 175847907138725194312361910200128064879 (0x844B13334E8AA264917E7B1453594D6F)Полное имя : E:\My Torrents 2\[apreder]La_bande_des_Jotas(2012)DVB.mkvФормат : MatroskaВерсия формата : Version 2Размер файла : 1,32 ГбайтПродолжительность : 1 ч. 14 м.Режим общего битрейта : ПеременныйОбщий поток : 2545 Кбит/секДата кодирования : UTC 2015-03-15 11:26:03Программа кодирования : mkvmerge v7.7.0 ('Six Voices') 64bit built on Feb 28 2015 23:39:33Библиотека кодирования : libebml v1.3.1 + libmatroska v1.4.2
    ВидеоИдентификатор : 1Формат : MPEG VideoВерсия формата : Version 2Профиль формата : Main@MainПараметр BVOP формата : ДаПараметр матрицы формата : ВыборочнаяПараметр GOP формата : M=3, N=15Format_Settings_PictureStructure : FrameИдентификатор кодека : V_MPEG2Идентификатор кодека/Информация : MPEG 1 or 2 VideoПродолжительность : 1 ч. 14 м.Вид битрейта : ПеременныйБитрейт : 2303 Кбит/секШирина : 704 пикселяВысота : 576 пикселейСоотношение сторон : 16:9Режим частоты кадров : ПостоянныйЧастота кадров : 25,000 кадров/секСтандарт вещания : PALЦветовое пространство : YUVСубдискретизация насыщенности : 4:2:0Битовая глубина : 8 битТип развёртки : ЧересстрочнаяПорядок развёртки : Верхнее поле первоеМетод сжатия : С потерямиБит/(Пиксели*Кадры) : 0.227Временной код первого кадра : 00:00:00:00Оригинал временного кода : Group of pictures headerРазмер потока : 1,19 Гбайт (90%)Default : ДаForced : НетGop_OpenClosed_FirstFrame : Closed
    АудиоИдентификатор : 2Формат : MPEG AudioВерсия формата : Version 1Профиль формата : Layer 2Идентификатор кодека : A_MPEG/L2Идентификатор кодека/Подсказка : MP2Продолжительность : 1 ч. 14 м.Вид битрейта : ПостоянныйБитрейт : 192 Кбит/секКаналы : 2 каналаЧастота : 48,0 КГцМетод сжатия : С потерямиРазмер потока : 102 Мбайт (8%)Язык : FrenchDefault : ДаForced : Нет

    Скриншот c названием фильма

    Скриншоты

    Резервные скриншоты


    -[2'168]
    Скачать .torrent

    Скачать торрент-файл бесплатно и на максимальной скорости!

    Как скачивать? · Что такое торрент? · Рейтинг и ограничения

    !ВНИМАНИЕ!
    Сайт не распространяет и не хранит электронные версии произведений, а занимается лишь лишь предоставлением доступа к создаваемому пользователями каталогу ссылок на торрент-файлы, которые содержат только списки хеш-сумм, убедительная просьба с жалобами обращаться напрямую к пользователю. Файлы для обмена на трекере предоставлены пользователями сайта, и администрация не несёт ответственности за их содержание. Просьба не заливать файлы, защищенные авторскими правами, а также файлы нелегального содержания!


    _________________
    [Профиль] [ЛС]
    Показать сообщения:    
    Ответить на тему

    Текущее время: Сегодня, в 22:49

    Часовой пояс: GMT + 2



    Вы не можете начинать темы
    Вы не можете отвечать на сообщения
    Вы не можете редактировать свои сообщения
    Вы не можете удалять свои сообщения
    Вы не можете голосовать в опросах
    Вы не можете прикреплять файлы к сообщениям
    Вы не можете скачивать файлы