BitTorrentTracker PerecTracker.org
BitTorrentTracker PerecTracker.org
    
Регистрация  ·  Вход
 
 · 
Забыли пароль?

  • Провинциалка / Hick (Дерик Мартини / Derick Martini) [2011, США, драма, комедия, BDRip-AVC] MVO (R5) + Original (Eng) + Subs (Rus, Eng)

    Ответить на тему
     
    Автор Сообщение

    Light

    Создавать темы 16-Мар-2015 01:19

           

    [Цитировать]

    Провинциалка / Hick
    «Trouble travels together»
    -Страна: США
    Жанр: драма, комедия
    Год выпуска: 2011
    Продолжительность: 01:39:10-Перевод: Профессиональный (многоголосый, закадровый) - R5
    Оригинальная аудиодорожка: English
    Cубтитры: Русские (полные), English (full)
    Навигация по главам: присутствует - 12 глав-Режиссер: Дерик Мартини / Derick Martini
    В ролях: Хлоя Грейс Морец, Эдди Редмэйн, Рэй МакКиннон, Рори Калкин, Джульетт Льюис, Блейк Лайвли, Алек Болдуин, Кристофер Коакли, Энсон Маунт, Тим Парати, Роберт Бэйкер, Роберт Дж. Стефенсон, Леон Ламар, Джонатан Корник, Брайан Галлиган, Шон Сайпос, Дартаниан Слоун, Майкл Дж. Джефферсон, Мэтт Маллой, Дэйв Вескио, Джоди Томпсон, Бет Мэлоун, Джина Стюарт, Трой Радсил, Дэйзи Де Ла Хойа, Тревор Дьюк-Морец, Чеви Ламонт Кофилд, Джейсон Дамико, Кэролин Фоланд, Бет Госнелл, Марианн Мидор, Джо Монтанти, Джим Прим, Пэт Томас-Описание: Тринадцатилетняя девчонка из Небраски, Лули осталась дома одна без родителей. В руки ей попадает отцовский пистолет 45 калибра. Не долго думая, Лули отправляется подальше от постоянных пьяных родительских скандалов в Вегас, захватив с собой пистолет. Перед девочкой открывается мир свободного насилия и жестоких преступлений.-
    Download sample-Качество видео: BDRip-AVC | исх. BDRemux 1080p - thx: Leo8426
    Формат: MKV-Видео: 1 144x476 (2.40:1), 23.976 fps, H.264 ~2 600 kbps avg, 0.195 bit/pixel
    Аудио №1: 48.0 kHz, AC3 Dolby Digital, 3/2 (L,C,R,l,r) + LFE ch, ~448 kbps | Профессиональный (многоголосый, закадровый) - R5
    Аудио №2: 48.0 kHz, AC3 Dolby Digital, 3/2 (L,C,R,l,r) + LFE ch, ~448 kbps | English
    Субтитры №1: Русские (полные) | *.srt
    Субтитры №2: English (full) | *.srt-

    MediaInfo

    General
    Unique ID : 236355193605867860274607091526839228698 (0xB1D05ABFB4AF3A038D927B78C8EED91A)
    Complete name : D:\Фильмы\Рипы\Hick.2011.BDRip-AVC.eFK tRuAVC.mkv
    Format : Matroska
    Format version : Version 4 / Version 2
    File size : 2.44 GiB
    Duration : 1h 39mn
    Overall bit rate : 3 516 Kbps
    Movie name : Провинциалка / Hick (2011) - Release for rutracker
    Encoded date : UTC 2015-03-15 16:56:48
    Writing application : mkvmerge v7.6.0 ('Garden of Dreams') 64bit built on Feb 8 2015 13:04:34
    Writing library : libebml v1.3.1 + libmatroska v1.4.2
    Attachements : cover.png
    DURATION : 01:39:10.112000000
    NUMBER_OF_FRAMES : 185941
    NUMBER_OF_BYTES : 333206272
    _STATISTICS_WRITING_APP : mkvmerge v7.6.0 ('Garden of Dreams') 64bit built on Feb 8 2015 13:04:34
    _STATISTICS_WRITING_DATE_UT : 2015-03-15 16:56:48
    _STATISTICS_TAGS : BPS DURATION NUMBER_OF_FRAMES NUMBER_OF_BYTES
    Video
    ID : 1
    Format : AVC
    Format/Info : Advanced Video Codec
    Format profile : High@L4.1
    Format settings, CABAC : Yes
    Format settings, ReFrames : 14 frames
    Codec ID : V_MPEG4/ISO/AVC
    Duration : 1h 39mn
    Bit rate : 2 550 Kbps
    Width : 1 144 pixels
    Height : 476 pixels
    Display aspect ratio : 2.40:1
    Frame rate mode : Constant
    Frame rate : 23.976 fps
    Color space : YUV
    Chroma subsampling : 4:2:0
    Bit depth : 8 bits
    Scan type : Progressive
    Bits/(Pixel*Frame) : 0.195
    Stream size : 1.77 GiB (73%)
    Title : eFK tRuAVC
    Writing library : x264 core 146 r2538kMod 121396c
    Encoding settings : cabac=1 / ref=14 / deblock=1:-2:-1 / analyse=0x3:0x133 / me=umh / subme=11 / psy=1 / fade_compensate=0.00 / psy_rd=1.00:0.00 / mixed_ref=1 / me_range=32 / chroma_me=1 / trellis=2 / 8x8dct=1 / cqm=0 / deadzone=21,11 / fast_pskip=0 / chroma_qp_offset=-2 / threads=12 / lookahead_threads=3 / sliced_threads=0 / nr=0 / decimate=1 / interlaced=0 / bluray_compat=0 / constrained_intra=0 / fgo=0 / bframes=16 / b_pyramid=2 / b_adapt=2 / b_bias=0 / direct=3 / weightb=1 / open_gop=0 / weightp=2 / keyint=250 / keyint_min=23 / scenecut=40 / intra_refresh=0 / rc_lookahead=60 / rc=crf / mbtree=0 / crf=20.0000 / qcomp=0.60 / qpmin=0 / qpmax=69 / qpstep=4 / vbv_maxrate=50000 / vbv_bufsize=62500 / crf_max=0.0 / nal_hrd=none / filler=0 / ip_ratio=1.40 / pb_ratio=1.30 / aq=3:1.00
    Language : English
    Default : Yes
    Forced : No
    Color primaries : BT.709
    Transfer characteristics : BT.709
    Matrix coefficients : BT.709
    Color range : Limited
    DURATION : 01:39:09.819000000
    NUMBER_OF_FRAMES : 142653
    NUMBER_OF_BYTES : 1944061120
    _STATISTICS_WRITING_APP : mkvmerge v7.6.0 ('Garden of Dreams') 64bit built on Feb 8 2015 13:04:34
    _STATISTICS_WRITING_DATE_UT : 2015-03-15 16:56:48
    _STATISTICS_TAGS : BPS DURATION NUMBER_OF_FRAMES NUMBER_OF_BYTES
    Audio #1
    ID : 2
    Format : AC-3
    Format/Info : Audio Coding 3
    Mode extension : CM (complete main)
    Format settings, Endianness : Big
    Codec ID : A_AC3
    Duration : 1h 39mn
    Bit rate mode : Constant
    Bit rate : 448 Kbps
    Channel(s) : 6 channels
    Channel positions : Front: L C R, Side: L R, LFE
    Sampling rate : 48.0 KHz
    Bit depth : 16 bits
    Compression mode : Lossy
    Stream size : 318 MiB (13%)
    Title : MVO (R5)
    Language : Russian
    Default : Yes
    Forced : Yes
    Audio #2
    ID : 3
    Format : AC-3
    Format/Info : Audio Coding 3
    Mode extension : CM (complete main)
    Format settings, Endianness : Big
    Codec ID : A_AC3
    Duration : 1h 39mn
    Bit rate mode : Constant
    Bit rate : 448 Kbps
    Channel(s) : 6 channels
    Channel positions : Front: L C R, Side: L R, LFE
    Sampling rate : 48.0 KHz
    Bit depth : 16 bits
    Compression mode : Lossy
    Stream size : 318 MiB (13%)
    Language : English
    Default : No
    Forced : No
    Text #1
    ID : 4
    Format : UTF-8
    Codec ID : S_TEXT/UTF8
    Codec ID/Info : UTF-8 Plain Text
    Title : полные
    Language : Russian
    Default : No
    Forced : No
    Text #2
    ID : 5
    Format : UTF-8
    Codec ID : S_TEXT/UTF8
    Codec ID/Info : UTF-8 Plain Text
    Title : full
    Language : English
    Default : No
    Forced : No
    Menu
    00:00:00.000 : en:00:00:00.000
    00:10:22.997 : en:00:10:22.997
    00:19:45.976 : en:00:19:45.976
    00:29:57.963 : en:00:29:57.963
    00:36:22.972 : en:00:36:22.972
    00:46:23.948 : en:00:46:23.948
    00:56:02.901 : en:00:56:02.901
    01:04:10.930 : en:01:04:10.930
    01:12:07.949 : en:01:12:07.949
    01:18:12.897 : en:01:18:12.897
    01:26:12.918 : en:01:26:12.918
    01:33:36.361 : en:01:33:36.361

    x264 log

    x264 [info]: frame I:1052 Avg QP:18.07 size: 72791
    x264 [info]: frame P:25979 Avg QP:19.62 size: 28694
    x264 [info]: frame B:115622 Avg QP:20.53 size: 9704
    x264 [info]: consecutive B-frames: 1.1% 1.0% 3.2% 9.8% 18.1% 50.0% 6.5% 2.1% 2.2% 1.3% 1.1% 0.6% 0.8% 0.8% 0.4% 0.3% 0.9%
    x264 [info]: mb I I16..4: 5.9% 79.5% 14.6%
    x264 [info]: mb P I16..4: 0.3% 10.6% 0.9% P16..4: 29.3% 35.0% 15.7% 2.0% 0.1% skip: 6.0%
    x264 [info]: mb B I16..4: 0.0% 1.0% 0.1% B16..8: 37.5% 18.5% 4.3% direct: 4.3% skip:34.4% L0:44.8% L1:48.1% BI: 7.1%
    x264 [info]: 8x8 transform intra:87.7% inter:57.9%
    x264 [info]: direct mvs spatial:99.9% temporal:0.1%
    x264 [info]: coded y,uvDC,uvAC intra: 94.9% 67.2% 30.1% inter: 25.6% 9.6% 0.4%
    x264 [info]: i16 v,h,dc,p: 40% 19% 7% 35%
    x264 [info]: i8 v,h,dc,ddl,ddr,vr,hd,vl,hu: 8% 7% 10% 10% 14% 14% 13% 12% 12%
    x264 [info]: i4 v,h,dc,ddl,ddr,vr,hd,vl,hu: 11% 8% 4% 9% 16% 17% 13% 12% 11%
    x264 [info]: i8c dc,h,v,p: 30% 31% 21% 18%
    x264 [info]: Weighted P-Frames: Y:2.2% UV:1.1%
    x264 [info]: ref P L0: 42.0% 10.7% 18.0% 6.4% 5.6% 3.9% 3.6% 1.8% 1.8% 1.4% 1.4% 1.1% 1.2% 1.1% 0.1% 0.0%
    x264 [info]: ref B L0: 65.4% 12.6% 7.1% 3.7% 2.7% 2.3% 1.8% 1.1% 0.9% 0.9% 0.7% 0.4% 0.2%
    x264 [info]: ref B L1: 91.0% 9.0%
    x264 [info]: kb/s:2613.94
    x264 [total]: encoded 142653 frames, 8.97 fps, 2613.94 kb/s, duration 4:25:11.14

    Screenshots

    Comparison

    Source

    Encode



    Скачать .torrent

    Скачать торрент-файл бесплатно и на максимальной скорости!

    Как скачивать? · Что такое торрент? · Рейтинг и ограничения

    !ВНИМАНИЕ!
    Сайт не распространяет и не хранит электронные версии произведений, а занимается лишь лишь предоставлением доступа к создаваемому пользователями каталогу ссылок на торрент-файлы, которые содержат только списки хеш-сумм, убедительная просьба с жалобами обращаться напрямую к пользователю. Файлы для обмена на трекере предоставлены пользователями сайта, и администрация не несёт ответственности за их содержание. Просьба не заливать файлы, защищенные авторскими правами, а также файлы нелегального содержания!


    _________________
    [Профиль] [ЛС]
    Показать сообщения:    
    Ответить на тему

    Текущее время: Сегодня, в 10:24

    Часовой пояс: GMT + 2



    Вы не можете начинать темы
    Вы не можете отвечать на сообщения
    Вы не можете редактировать свои сообщения
    Вы не можете удалять свои сообщения
    Вы не можете голосовать в опросах
    Вы не можете прикреплять файлы к сообщениям
    Вы не можете скачивать файлы